<?xml version="1.0" standalone="no"?>
<!DOCTYPE svg PUBLIC "-//W3C//DTD SVG 1.1//EN" "http://www.w3.org/Graphics/SVG/1.1/DTD/svg11.dtd" >
<svg>
<metadata>
Created by IconKit
</metadata>
<defs>
<font id="iconkit" horiz-adv-x="1024" >
  <font-face 
    font-family="iconkit"
    font-weight="500"
    font-stretch="normal"
    units-per-em="1024"
    panose-1="2 0 6 3 0 0 0 0 0 0"
    ascent="896"
    descent="-128"
    x-height="792"
    bbox="-0.516154 -128.498 1025.43 896.525"
    underline-thickness="0"
    underline-position="0"
    unicode-range="U+0078-E92A"
  />
    <missing-glyph />
    <glyph glyph-name="x" unicode="x" horiz-adv-x="1001" 
d="M281 543q-27 -1 -53 -1h-83q-18 0 -36.5 -6t-32.5 -18.5t-23 -32t-9 -45.5v-76h912v41q0 16 -0.5 30t-0.5 18q0 13 -5 29t-17 29.5t-31.5 22.5t-49.5 9h-133v-97h-438v97zM955 310v-52q0 -23 0.5 -52t0.5 -58t-10.5 -47.5t-26 -30t-33 -16t-31.5 -4.5q-14 -1 -29.5 -0.5
t-29.5 0.5h-32l-45 128h-439l-44 -128h-29h-34q-20 0 -45 1q-25 0 -41 9.5t-25.5 23t-13.5 29.5t-4 30v167h911zM163 247q-12 0 -21 -8.5t-9 -21.5t9 -21.5t21 -8.5q13 0 22 8.5t9 21.5t-9 21.5t-22 8.5zM316 123q-8 -26 -14 -48q-5 -19 -10.5 -37t-7.5 -25t-3 -15t1 -14.5
t9.5 -10.5t21.5 -4h37h67h81h80h64h36q23 0 34 12t2 38q-5 13 -9.5 30.5t-9.5 34.5q-5 19 -11 39h-368zM336 498v228q0 11 2.5 23t10 21.5t20.5 15.5t34 6h188q31 0 51.5 -14.5t20.5 -52.5v-227h-327z" />
    <glyph glyph-name="alert-octagon" unicode="&#xe81b;" 
d="M128 542.976v-317.952l225.024 -225.024h317.952l225.024 225.024v317.952l-225.024 225.024h-317.952zM335.36 853.333h353.28q17.6716 -0.00372314 30.1653 -12.5013l250.027 -250.027q12.4975 -12.4938 12.5013 -30.1653v-353.28
q-0.00390625 -17.6716 -12.5013 -30.1653l-250.027 -250.027q-12.4938 -12.4976 -30.1653 -12.5013h-353.28q-17.6716 0.00377655 -30.1653 12.5013l-250.027 250.027q-12.4975 12.4938 -12.5013 30.1653v353.28q0.00377274 17.6716 12.5013 30.1653l250.027 250.027
q12.4937 12.4975 30.1653 12.5013zM512 213.333zM469.333 213.333q0 -17.664 12.5013 -30.1653t30.1653 -12.5013t30.1653 12.5013t12.5013 30.1653t-12.5013 30.1653t-30.1653 12.5013t-30.1653 -12.5013q-12.5013 -12.5013 -12.5013 -30.1653zM469.333 554.667v-170.667
q0 -17.664 12.5013 -30.1653t30.1653 -12.5013t30.1653 12.5013t12.5013 30.1653v170.667q0 17.664 -12.5013 30.1653t-30.1653 12.5013t-30.1653 -12.5013q-12.5013 -12.5013 -12.5013 -30.1653z" />
    <glyph glyph-name="alert-circle" unicode="&#xe81c;" 
d="M512 -85.3333q-95.4834 0 -182.397 37.1694t-149.756 100.011t-100.011 149.756q-37.1694 86.9139 -37.1694 182.397q0 95.4834 37.1694 182.397q37.1694 86.9138 100.011 149.755q62.8417 62.8417 149.756 100.011q86.9138 37.1694 182.397 37.1694
q95.4833 0 182.397 -37.1694t149.756 -100.011q62.8417 -62.8417 100.011 -149.755t37.1694 -182.397q0 -95.4833 -37.1694 -182.397t-100.011 -149.756q-62.8417 -62.8417 -149.755 -100.011q-86.9138 -37.1694 -182.398 -37.1694zM512 -2.87646e-06
q104.256 0 192.72 51.408q88.4642 51.408 139.872 139.872q51.408 88.4641 51.408 192.72q0 159 -112.5 271.5t-271.5 112.5t-271.5 -112.5t-112.5 -271.5q0 -104.256 51.4079 -192.72q51.4079 -88.4642 139.872 -139.872t192.72 -51.408zM469.333 554.667v-170.667
q0 -17.664 12.5013 -30.1653t30.1653 -12.5013t30.1653 12.5013t12.5013 30.1653v170.667q0 17.664 -12.5013 30.1653t-30.1653 12.5013t-30.1653 -12.5013q-12.5013 -12.5013 -12.5013 -30.1653zM512 213.333zM469.333 213.333q0 -17.664 12.5013 -30.1653
t30.1653 -12.5013t30.1653 12.5013t12.5013 30.1653t-12.5013 30.1653t-30.1653 12.5013t-30.1653 -12.5013q-12.5013 -12.5013 -12.5013 -30.1653z" />
    <glyph glyph-name="activity" unicode="&#xe81d;" 
d="M424.491 781.483q-9.728 29.184 -40.4907 29.184t-40.4907 -29.184l-118.229 -354.816h-139.947q-17.664 0 -30.1653 -12.5013q-12.5013 -12.5013 -12.5013 -30.1653t12.5013 -30.1653q12.5013 -12.5013 30.1653 -12.5013h170.667h0.0102844q12.7347 0 24.5955 8.5509
q11.8607 8.55087 15.8849 20.6331l87.5093 262.571l215.509 -646.571q9.72797 -29.184 40.4907 -29.184q30.7626 0 40.4907 29.184l118.229 354.816h139.947q17.664 0 30.1653 12.5013t12.5013 30.1653t-12.5013 30.1653t-30.1653 12.5013h-170.667h-0.0102539
q-12.7347 0 -24.5955 -8.5509q-11.8608 -8.5509 -15.8849 -20.6331l-87.5093 -262.571z" />
    <glyph glyph-name="alert-triangle" unicode="&#xe81e;" 
d="M402.432 753.237q15.4774 25.5634 47.5808 43.6555t61.9872 18.092q29.8837 0 61.9872 -18.092t47.5808 -43.6555l361.728 -603.904q17.1508 -29.7037 17.1508 -64.0034q0 -52.6043 -37.2286 -90.1073q-37.2287 -37.503 -89.8315 -37.8893h-723.243
q-52.4119 0.573734 -89.5054 38.0755q-37.0935 37.5018 -37.0935 89.9168q0 34.6727 17.5003 64.605zM114.603 106.667q-5.72215 -9.90473 -5.72215 -21.3436q0 -17.2815 12.2277 -29.7799q12.2277 -12.4983 29.5051 -12.8766h722.304q17.4709 0.190895 29.8358 12.6915
q12.3647 12.5006 12.3647 29.9726q0 11.0669 -5.37915 20.7385l-361.259 603.093q-5.15723 8.5061 -15.8472 14.5261t-20.6374 6.02002q-9.92026 0 -20.595 -5.995t-15.8377 -14.4658zM512 170.667zM469.333 170.667q0 -17.664 12.5013 -30.1653t30.1653 -12.5013
t30.1653 12.5013t12.5013 30.1653t-12.5013 30.1653t-30.1653 12.5013t-30.1653 -12.5013q-12.5013 -12.5013 -12.5013 -30.1653zM469.333 512v-170.667q0 -17.664 12.5013 -30.1653t30.1653 -12.5013t30.1653 12.5013t12.5013 30.1653v170.667q0 17.664 -12.5013 30.1653
t-30.1653 12.5013t-30.1653 -12.5013q-12.5013 -12.5013 -12.5013 -30.1653z" />
    <glyph glyph-name="align-center" unicode="&#xe81f;" 
d="M768 512h-512h-0.00653076q-17.664 0 -30.1653 -12.5013t-12.5013 -30.1653t12.5013 -30.1653t30.1653 -12.5013h0.00653076h512q17.6613 0.00274658 30.1608 12.5041q12.4994 12.5013 12.4994 30.1626t-12.4994 30.1627q-12.4995 12.5013 -30.1608 12.5039zM896 682.667
h-768q-17.664 0 -30.1653 -12.5013t-12.5013 -30.1653q0 -17.6639 12.5014 -30.1653q12.5013 -12.5013 30.1653 -12.5013h768q17.664 0 30.1653 12.5013t12.5013 30.1653t-12.5013 30.1653t-30.1654 12.5013zM896 341.333h-768q-17.6613 -0.00271606 -30.1607 -12.5041
q-12.4994 -12.5013 -12.4994 -30.1626t12.4994 -30.1627t30.1607 -12.504h768q17.6613 0.00268555 30.1607 12.504q12.4995 12.5014 12.4995 30.1626t-12.4995 30.1626t-30.1607 12.5042zM768 170.667h-512q-17.664 0 -30.1653 -12.5013t-12.5013 -30.1653t12.5013 -30.1653
t30.1653 -12.5013h512q17.664 0 30.1653 12.5013t12.5013 30.1653t-12.5013 30.1653t-30.1653 12.5013z" />
    <glyph glyph-name="airplay" unicode="&#xe820;" 
d="M213.333 213.333h-42.6667q-17.664 0 -30.1653 12.5013t-12.5013 30.1653v426.667q0 17.6639 12.5013 30.1653q12.5013 12.5013 30.1653 12.5013h682.667q17.664 0 30.1653 -12.5013t12.5013 -30.1653v-426.667q0 -17.664 -12.5013 -30.1653t-30.1653 -12.5013h-42.6667
q-17.6613 -0.00268555 -30.1607 -12.504t-12.4995 -30.1626t12.4995 -30.1626t30.1607 -12.504h42.6667q52.992 0 90.496 37.504q37.504 37.504 37.504 90.496v426.667q0 52.9921 -37.504 90.496t-90.496 37.504h-682.667q-52.992 0 -90.496 -37.504
q-37.504 -37.504 -37.504 -90.496v-426.667q0 -52.992 37.504 -90.496q37.504 -37.504 90.496 -37.504h42.6667q17.6613 0.00270081 30.1607 12.504t12.4994 30.1626t-12.4994 30.1626t-30.1607 12.5041zM512 189.355l-122.24 -146.688h244.48zM725.333 -42.6667h-426.667
q-17.6573 0.0066185 -30.154 12.508q-12.4966 12.5013 -12.4966 30.1587q0 15.4417 9.88266 27.3067l213.333 256q12.793 15.3408 32.768 15.3408q19.9749 0 32.768 -15.3408l213.333 -256q9.88269 -11.865 9.88269 -27.3067q0 -17.6574 -12.4966 -30.1587t-30.1532 -12.508
z" />
    <glyph glyph-name="align-justify" unicode="&#xe821;" 
d="M896 512h-768h-0.00653076q-17.664 0 -30.1653 -12.5013t-12.5013 -30.1653t12.5013 -30.1653t30.1653 -12.5013h0.00653076h768q17.6613 0.00274658 30.1607 12.5041t12.4995 30.1626q0 17.6613 -12.4995 30.1627q-12.4995 12.5013 -30.1607 12.5039zM896 682.667h-768
q-17.664 0 -30.1653 -12.5013t-12.5013 -30.1653q0 -17.6639 12.5014 -30.1653q12.5013 -12.5013 30.1653 -12.5013h768q17.664 0 30.1653 12.5013t12.5013 30.1653t-12.5013 30.1653t-30.1654 12.5013zM896 341.333h-768q-17.6613 -0.00271606 -30.1607 -12.5041
q-12.4994 -12.5013 -12.4994 -30.1626t12.4994 -30.1627t30.1607 -12.504h768q17.6613 0.00268555 30.1607 12.504q12.4995 12.5014 12.4995 30.1626t-12.4995 30.1626t-30.1607 12.5042zM896 170.667h-768q-17.664 0 -30.1653 -12.5013t-12.5013 -30.1653t12.5013 -30.1653
t30.1653 -12.5013h768q17.664 0 30.1653 12.5013t12.5013 30.1653t-12.5013 30.1653t-30.1653 12.5013z" />
    <glyph glyph-name="align-left" unicode="&#xe822;" 
d="M725.333 512h-597.333h-0.00653076q-17.664 0 -30.1653 -12.5013t-12.5013 -30.1653t12.5013 -30.1653t30.1653 -12.5013h0.00653076h597.333q17.6613 0.00274658 30.1607 12.5041q12.4995 12.5013 12.4995 30.1626t-12.4995 30.1627q-12.4994 12.5013 -30.1607 12.5039z
M896 682.667h-768q-17.664 0 -30.1653 -12.5013t-12.5013 -30.1653q0 -17.6639 12.5014 -30.1653q12.5013 -12.5013 30.1653 -12.5013h768q17.664 0 30.1653 12.5013t12.5013 30.1653t-12.5013 30.1653t-30.1654 12.5013zM896 341.333h-768
q-17.6613 -0.00271606 -30.1607 -12.5041q-12.4994 -12.5013 -12.4994 -30.1626t12.4994 -30.1627t30.1607 -12.504h768q17.6613 0.00268555 30.1607 12.504q12.4995 12.5014 12.4995 30.1626t-12.4995 30.1626t-30.1607 12.5042zM725.333 170.667h-597.333
q-17.664 0 -30.1653 -12.5013t-12.5013 -30.1653t12.5013 -30.1653t30.1653 -12.5013h597.333q17.664 0 30.1653 12.5013t12.5013 30.1653t-12.5013 30.1653t-30.1653 12.5013z" />
    <glyph glyph-name="align-right" unicode="&#xe823;" 
d="M896 512h-597.333h-0.00653076q-17.664 0 -30.1653 -12.5013q-12.5013 -12.5013 -12.5013 -30.1653t12.5013 -30.1653q12.5013 -12.5013 30.1653 -12.5013h0.00653076h597.333q17.6613 0.00274658 30.1607 12.5041t12.4995 30.1626q0 17.6613 -12.4995 30.1627
q-12.4995 12.5013 -30.1607 12.5039zM896 682.667h-768q-17.664 0 -30.1653 -12.5013t-12.5013 -30.1653q0 -17.6639 12.5014 -30.1653q12.5013 -12.5013 30.1653 -12.5013h768q17.664 0 30.1653 12.5013t12.5013 30.1653t-12.5013 30.1653t-30.1654 12.5013zM896 341.333
h-768q-17.6613 -0.00271606 -30.1607 -12.5041q-12.4994 -12.5013 -12.4994 -30.1626t12.4994 -30.1627t30.1607 -12.504h768q17.6613 0.00268555 30.1607 12.504q12.4995 12.5014 12.4995 30.1626t-12.4995 30.1626t-30.1607 12.5042zM896 170.667h-597.333
q-17.664 0 -30.1653 -12.5013t-12.5013 -30.1653t12.5013 -30.1653t30.1653 -12.5013h597.333q17.664 0 30.1653 12.5013t12.5013 30.1653t-12.5013 30.1653t-30.1653 12.5013z" />
    <glyph glyph-name="arrow-down-left" unicode="&#xe824;" 
d="M737.835 670.165l-512 -512q-11.977 -12.4007 -11.977 -29.641q0 -17.664 12.5013 -30.1653t30.1653 -12.5013q17.2402 0 29.641 11.977l512 512q13.0256 12.5806 13.0256 30.6896q0 17.6639 -12.5013 30.1653t-30.1653 12.5014q-18.109 0 -30.6896 -13.0256z
M298.667 512q0 17.664 -12.5013 30.1653t-30.1654 12.5013q-17.664 0 -30.1653 -12.5013t-12.5013 -30.1653v-384q0 -17.664 12.5013 -30.1653t30.1653 -12.5013h384q17.664 0 30.1653 12.5013t12.5013 30.1653t-12.5013 30.1653t-30.1653 12.5013h-341.333z" />
    <glyph glyph-name="arrow-down-right" unicode="&#xe825;" 
d="M225.835 609.835l512 -512q12.4008 -11.977 29.641 -11.977q17.664 0 30.1653 12.5013t12.5013 30.1653q0 17.2403 -11.977 29.641l-512 512q-12.4008 11.977 -29.641 11.977q-17.664 0 -30.1653 -12.5013t-12.5013 -30.1653q0 -17.2403 11.977 -29.6411zM384 170.667
q-17.664 0 -30.1653 -12.5013t-12.5013 -30.1653t12.5013 -30.1653t30.1653 -12.5013h384q17.664 0 30.1653 12.5013t12.5013 30.1653v384q0 17.664 -12.5013 30.1653t-30.1653 12.5013t-30.1653 -12.5013t-12.5013 -30.1653v-341.333z" />
    <glyph glyph-name="anchor" unicode="&#xe826;" 
d="M554.667 2.34667q126.195 14.1451 225.518 113.468q99.323 99.3231 113.468 225.519h-82.9866q-17.6641 0 -30.1653 12.5013q-12.5013 12.5013 -12.5013 30.1653t12.5013 30.1653t30.1653 12.5013h128q17.664 0 30.1653 -12.5013t12.5013 -30.1653
q-6.10352e-05 -95.4833 -37.1695 -182.397t-100.011 -149.756q-62.8417 -62.8417 -149.755 -100.011q-86.9138 -37.1694 -182.397 -37.1694q-95.4834 0 -182.397 37.1694q-86.9139 37.1694 -149.756 100.011q-62.8417 62.8417 -100.011 149.756
q-37.1695 86.9139 -37.1694 182.397q0 17.664 12.5013 30.1653q12.5013 12.5013 30.1653 12.5013h128q17.664 0 30.1653 -12.5013t12.5013 -30.1653t-12.5013 -30.1653t-30.1653 -12.5013h-82.9867q14.1451 -126.195 113.468 -225.518q99.3231 -99.3231 225.518 -113.468
v552.32q0 17.664 12.5013 30.1653t30.1653 12.5013q17.664 0 30.1653 -12.5013t12.5013 -30.1653v-552.32zM512 512h-0.0130615q-70.6559 0 -120.661 50.0054q-50.0053 50.0054 -50.0053 120.661q0 70.656 50.0053 120.661q50.0053 50.0053 120.661 50.0053h0.0130615
q70.6506 -0.00537109 120.652 -50.0107t50.0015 -120.656t-50.0015 -120.656q-50.0015 -50.0054 -120.652 -50.01zM512 597.333q35.3281 0 60.3307 25.0026t25.0026 60.3307t-25.0026 60.3307q-25.0027 25.0027 -60.3307 25.0027t-60.3307 -25.0027t-25.0027 -60.3306
q0 -35.328 25.0027 -60.3307t60.3307 -25.0027z" />
    <glyph glyph-name="aperture" unicode="&#xe827;" 
d="M456.533 -82.0907q-111.336 13.2893 -221.472 95.5981q-110.137 82.3088 -154.421 185.319q-15.7211 36.6004 -26.8474 90.6951q-11.1263 54.0947 -11.1263 93.9286l0.000324249 0.549561q0 152.559 89.3867 275.584q2.03531 3.35077 4.65067 6.27197
q58.1998 77.6436 168.064 132.594t206.899 54.9507q25.0482 0 49.9547 -2.67023q113.129 -12.06 224.99 -94.5688q111.862 -82.5088 156.791 -187.031q37.9307 -88.129 37.9307 -185.131l0.000610352 -0.750641q0 -62.9084 -26.1905 -143.435
q-26.1905 -80.5263 -63.1968 -131.399q-2.03546 -3.35104 -4.6507 -6.272q-58.2 -77.6436 -168.064 -132.594t-206.899 -54.9507q-25.0486 0 -49.9547 2.67025q-2.92337 0.119843 -5.80267 0.639999zM441.813 6.4l94.848 164.267h-343.979
q37.2406 -55.7356 110.236 -103.866q72.9953 -48.1301 138.895 -60.4009v-0.000110149zM537.131 0.810666q66.9302 4.32825 145.101 43.5074q78.1708 39.1792 121.694 90.2099l-94.8054 164.139l-61.44 -106.24q-0.209839 -0.365189 -0.426697 -0.725327l-110.08 -190.848z
M659.84 383.957l-73.8987 128.043h-147.883l-73.8987 -128l73.8987 -128h147.883l73.8987 128v-0.0429993zM746.539 404.48l109.952 -190.336q39.5093 79.9515 39.5093 169.856q0 66.2804 -21.8453 128h-189.696l61.056 -105.728q0.533508 -0.883087 1.02393 -1.79199z
M149.845 256h189.696l-61.056 105.728q-0.534332 0.884827 -1.02399 1.79199l-109.952 190.336q-16.3571 -33.1335 -27.9334 -82.7343t-11.5764 -86.5517l0.000427246 -0.570068q0 -66.2804 21.8453 -128zM220.075 633.472l94.8053 -164.139l61.44 106.24
q0.210175 0.366089 0.426666 0.725342l110.08 190.848q-66.9301 -4.32819 -145.101 -43.5074q-78.1708 -39.1793 -121.694 -90.21zM582.187 761.6l-94.8481 -164.267h343.979q-37.2407 55.7356 -110.236 103.866t-138.895 60.401z" />
    <glyph glyph-name="arrow-left" unicode="&#xe828;" 
d="M853.333 426.667h-682.667q-17.664 0 -30.1653 -12.5013t-12.5013 -30.1653t12.5013 -30.1653t30.1653 -12.5013h682.667q17.6639 0 30.1653 12.5013q12.5013 12.5013 12.5013 30.1653t-12.5013 30.1653t-30.1653 12.5013zM456.832 609.835
q13.0256 12.5806 13.0256 30.6896q0 17.664 -12.5013 30.1653t-30.1653 12.5013q-18.109 0 -30.6896 -13.0256l-256 -256q-12.4922 -12.496 -12.4922 -30.1653t12.4922 -30.1653l256 -256q12.5805 -13.0257 30.6896 -13.0257q17.664 0 30.1653 12.5013t12.5013 30.1653
q0 18.109 -13.0257 30.6897l-225.835 225.835z" />
    <glyph glyph-name="arrow-right" unicode="&#xe829;" 
d="M170.667 341.333h682.667q17.664 0 30.1653 12.5013t12.5013 30.1653t-12.5013 30.1653t-30.1653 12.5013h-682.667q-17.664 0 -30.1653 -12.5013t-12.5013 -30.1653t12.5013 -30.1653t30.1653 -12.5013zM567.168 158.165q-11.977 -12.4007 -11.977 -29.641
q0 -17.664 12.5013 -30.1653q12.5013 -12.5014 30.1653 -12.5014q17.2403 0 29.6411 11.977l256 256q12.4922 12.4961 12.4922 30.1653q0 17.6693 -12.4922 30.1653l-256 256q-12.4008 11.977 -29.641 11.977q-17.664 0 -30.1653 -12.5013t-12.5013 -30.1653
q0 -17.2404 11.977 -29.6411l225.835 -225.835z" />
    <glyph glyph-name="arrow-down" unicode="&#xe82a;" 
d="M469.333 725.333v-682.667q0 -17.664 12.5013 -30.1653q12.5013 -12.5013 30.1653 -12.5013t30.1653 12.5013q12.5013 12.5013 12.5013 30.1653v682.667q0 17.664 -12.5013 30.1653t-30.1653 12.5013t-30.1653 -12.5013q-12.5013 -12.5013 -12.5013 -30.1653z
M286.165 328.832q-12.5805 13.0256 -30.6897 13.0256q-17.664 0 -30.1653 -12.5013t-12.5013 -30.1653q0 -18.1091 13.0256 -30.6896l256 -256q12.496 -12.4922 30.1653 -12.4922t30.1653 12.4922l256 256q11.977 12.4007 11.977 29.641q0 17.6639 -12.5013 30.1653
q-12.5013 12.5013 -30.1653 12.5013q-17.2403 0 -29.6411 -11.977l-225.835 -225.835z" />
    <glyph glyph-name="arrow-up-left" unicode="&#xe82b;" 
d="M798.165 158.165l-512 512q-12.4008 11.977 -29.641 11.977q-17.664 0 -30.1653 -12.5013t-12.5013 -30.1653q0 -17.2403 11.977 -29.6411l512 -512q12.4008 -11.977 29.641 -11.977q17.664 0 30.1653 12.5013t12.5013 30.1653q0 17.2403 -11.977 29.6411zM640 597.333
q17.664 0 30.1653 12.5013t12.5013 30.1653q0 17.6639 -12.5014 30.1653q-12.5013 12.5013 -30.1653 12.5013h-384q-17.664 0 -30.1653 -12.5013t-12.5013 -30.1653v-384q0 -17.664 12.5013 -30.1653t30.1653 -12.5013t30.1653 12.5013t12.5013 30.1653v341.333z" />
    <glyph glyph-name="arrow-up-right" unicode="&#xe82c;" 
d="M286.165 97.8347l512 512q13.0256 12.5806 13.0256 30.6896q0 17.664 -12.5013 30.1653t-30.1653 12.5013q-18.109 0 -30.6897 -13.0256l-512 -512q-11.977 -12.4007 -11.977 -29.641q0 -17.664 12.5013 -30.1653t30.1653 -12.5013q17.2402 0 29.6411 11.977z
M725.333 256q0 -17.664 12.5013 -30.1653t30.1653 -12.5013t30.1653 12.5013t12.5013 30.1653v384q0 17.664 -12.5013 30.1653t-30.1653 12.5013h-384q-17.664 0 -30.1653 -12.5013t-12.5013 -30.1653q0 -17.6639 12.5013 -30.1653q12.5013 -12.5013 30.1653 -12.5013
h341.333z" />
    <glyph glyph-name="arrow-up" unicode="&#xe82d;" 
d="M554.667 42.6667v682.667q0 17.664 -12.5013 30.1653t-30.1653 12.5013t-30.1653 -12.5013t-12.5013 -30.1653v-682.667q0 -17.664 12.5013 -30.1653q12.5013 -12.5013 30.1653 -12.5013t30.1653 12.5013q12.5013 12.5013 12.5013 30.1653zM737.835 439.168
q12.4007 -11.977 29.641 -11.977q17.664 0 30.1653 12.5013t12.5013 30.1653q0 17.2403 -11.977 29.641l-256 256q-12.4959 12.4922 -30.1653 12.4922q-17.6693 0 -30.1653 -12.4922l-256 -256q-11.977 -12.4008 -11.977 -29.641q0 -17.664 12.5013 -30.1653
t30.1653 -12.5013q17.2403 0 29.641 11.977l225.835 225.835z" />
    <glyph glyph-name="award" unicode="&#xe82e;" 
d="M304.646 283.538q-55.4456 42.419 -94.6861 121.847q-39.2405 79.4285 -39.2405 149.24q0 92.6691 45.6946 171.302q45.6946 78.6324 124.327 124.327q78.6324 45.6946 171.301 45.6946q92.669 0 171.301 -45.6946t124.327 -124.327t45.6946 -171.302
q0 -69.8111 -39.2405 -149.24q-39.2404 -79.4285 -94.6862 -121.847l48.2119 -363.21q0.377441 -2.81851 0.377441 -5.66244q0 -17.6635 -12.501 -30.1644t-30.1644 -12.501q-11.827 0 -21.9661 6.0891l-191.397 114.898l-191.397 -114.813
q-10.1196 -6.05759 -21.9136 -6.05759q-17.6635 0 -30.1644 12.5009q-12.5009 12.501 -12.5009 30.1644q0 2.80611 0.367554 5.58828l48.2119 363.21zM384.644 237.886l-31.9991 -241.059l137.383 82.4295q10.1415 6.09303 21.9727 6.09303q11.8311 0 21.9727 -6.09303
l137.383 -82.4295l-31.9564 241.059q-25.2829 -10.1566 -62.4598 -17.3448q-37.1769 -7.18817 -64.4237 -7.18817l-0.515381 0.00038147l-0.472809 -0.000335693q-27.2467 0 -64.4236 7.18819q-37.1769 7.18817 -62.4606 17.3447zM512 298.685q105.981 0 180.987 75.0058
q75.0057 75.0058 75.0057 180.987q0 105.981 -75.0057 180.987t-180.987 75.0057q-105.981 0 -180.987 -75.0057q-75.0057 -75.0057 -75.0057 -180.987q0 -105.981 75.0057 -180.987q75.0058 -75.0058 180.987 -75.0058z" />
    <glyph glyph-name="bar-chart" unicode="&#xe82f;" 
d="M810.667 725.333v-682.667h85.3333v682.667h-85.3333zM768 810.667h170.667q17.664 0 30.1653 -12.5013t12.5013 -30.1653v-768q0 -17.664 -12.5013 -30.1653q-12.5013 -12.5013 -30.1653 -12.5013h-170.667q-17.664 0 -30.1653 12.5013t-12.5013 30.1653v768
q0 17.664 12.5013 30.1653t30.1653 12.5013zM469.333 512v-469.333h85.3333v469.333h-85.3333zM426.667 597.333h170.667q17.664 0 30.1653 -12.5013t12.5013 -30.1653v-554.667q0 -17.664 -12.5013 -30.1653q-12.5013 -12.5013 -30.1654 -12.5013h-170.667v0
q-17.664 0 -30.1653 12.5013t-12.5013 30.1653v554.667q0 17.664 12.5013 30.1653t30.1654 12.5013zM128 42.6667h85.3333v256h-85.3333v-256zM85.3333 384h170.667v0q17.664 0 30.1653 -12.5013t12.5013 -30.1653v-341.333q0 -17.664 -12.5013 -30.1653
q-12.5013 -12.5013 -30.1653 -12.5013h-170.667q-17.664 0 -30.1653 12.5013q-12.5013 12.5013 -12.5013 30.1653v341.333q0 17.664 12.5013 30.1653q12.5013 12.5013 30.1653 12.5013z" />
    <glyph glyph-name="at-sign" unicode="&#xe830;" 
d="M725.333 384v-42.6667q0 -35.328 25.0026 -60.3307q25.0027 -25.0027 60.3307 -25.0027t60.3307 25.0027q25.0027 25.0027 25.0027 60.3307v42.6667q-0.0065918 104.249 -51.4169 192.708q-51.4103 88.4586 -139.872 139.863q-88.4619 51.4047 -192.711 51.4047
q-104.256 0 -192.72 -51.408q-88.4642 -51.408 -139.872 -139.872q-51.408 -88.4641 -51.408 -192.72q0 -104.256 51.4079 -192.72q51.4079 -88.464 139.872 -139.872q88.4642 -51.408 192.72 -51.408q53.88 0 122.287 23.1846t111.185 55.9436
q11.4809 8.79147 25.9413 8.79147q17.6649 0 30.1669 -12.502q12.5019 -12.502 12.5019 -30.1668q0 -21.0684 -16.7274 -33.8773q-52.2835 -40.0388 -135.892 -68.3755q-83.6089 -28.3367 -149.462 -28.3367q-95.4329 7.62939e-06 -182.343 37.1879
q-86.9099 37.1879 -149.762 100.04q-62.8524 62.8524 -100.04 149.762t-37.1878 182.343q0 95.4328 37.1879 182.343q37.1879 86.91 100.04 149.762q62.8524 62.8525 149.762 100.04q86.91 37.1879 182.343 37.1879q95.4269 0 182.334 -37.1855
q86.9068 -37.1855 149.759 -100.034q62.8524 -62.8485 100.043 -149.753q37.191 -86.9045 37.197 -182.331v-42.6667v-0.00665283q0 -70.656 -50.0053 -120.661q-50.0053 -50.0053 -120.661 -50.0053q-36.4584 0 -77.2128 21.0292q-40.7543 21.0292 -61.8806 50.7428
q-26.3547 -29.7021 -73.1097 -50.7232q-46.7549 -21.0211 -86.4636 -21.0211q-88.32 0 -150.827 62.5067q-62.5067 62.5067 -62.5067 150.827q0 88.32 62.5067 150.827q62.5067 62.5067 150.827 62.5067q88.3203 0 150.827 -62.5067t62.5067 -150.827zM512 256
q52.992 0 90.496 37.504t37.504 90.496t-37.504 90.496t-90.496 37.504q-52.992 0 -90.496 -37.504t-37.504 -90.496t37.504 -90.496t90.496 -37.504z" />
    <glyph glyph-name="bar-chart-" unicode="&#xe831;" 
d="M469.333 725.333v-682.667h85.3333v682.667h-85.3333zM426.667 810.667h170.667q17.664 0 30.1653 -12.5013t12.5013 -30.1653v-768q0 -17.664 -12.5013 -30.1653q-12.5013 -12.5013 -30.1654 -12.5013h-170.667v0q-17.664 0 -30.1653 12.5013t-12.5013 30.1653v768
q0 17.664 12.5013 30.1653t30.1654 12.5013zM810.667 512v-469.333h85.3333v469.333h-85.3333zM768 597.333h170.667q17.664 0 30.1653 -12.5013t12.5013 -30.1653v-554.667q0 -17.664 -12.5013 -30.1653q-12.5013 -12.5013 -30.1653 -12.5013h-170.667
q-17.664 0 -30.1653 12.5013t-12.5013 30.1653v554.667q0 17.664 12.5013 30.1653t30.1653 12.5013zM128 42.6667h85.3333v256h-85.3333v-256zM85.3333 384h170.667v0q17.664 0 30.1653 -12.5013t12.5013 -30.1653v-341.333q0 -17.664 -12.5013 -30.1653
q-12.5013 -12.5013 -30.1653 -12.5013h-170.667q-17.664 0 -30.1653 12.5013q-12.5013 12.5013 -12.5013 30.1653v341.333q0 17.664 12.5013 30.1653q12.5013 12.5013 30.1653 12.5013z" />
    <glyph glyph-name="battery-charging" unicode="&#xe832;" 
d="M213.333 170.667h-85.3333q-17.664 0 -30.1653 12.5013t-12.5013 30.1653v341.333q0 17.664 12.5013 30.1653t30.1653 12.5013h136.107q17.664 0 30.1653 12.5013t12.5013 30.1653t-12.5013 30.1653t-30.1653 12.5013h-136.107q-52.992 0 -90.496 -37.504
t-37.504 -90.496v-341.333q0 -52.992 37.504 -90.496t90.496 -37.504h85.3333q17.664 0 30.1653 12.5013t12.5013 30.1653t-12.5013 30.1653t-30.1653 12.5018zM640 597.333h85.3333q17.664 0 30.1653 -12.5013t12.5013 -30.1653v-341.333q0 -17.664 -12.5013 -30.1653
t-30.1653 -12.5013h-136.107q-17.664 0 -30.1653 -12.5013t-12.5013 -30.1653t12.5013 -30.1653t30.1653 -12.5013h136.107q52.992 0 90.496 37.504q37.504 37.504 37.504 90.496v341.333q0 52.9921 -37.504 90.496t-90.496 37.504h-85.3333q-17.664 0 -30.1653 -12.5013
t-12.5013 -30.1653t12.5013 -30.1653t30.1653 -12.5018zM1024 341.333v85.3333q-0.00274658 17.6613 -12.504 30.1607q-12.5013 12.4994 -30.1627 12.4994q-17.6612 0 -30.1625 -12.4994t-12.5041 -30.1607v-85.3333q0.00280762 -17.6613 12.5041 -30.1607
q12.5013 -12.4994 30.1626 -12.4994t30.1626 12.4995q12.5013 12.4994 12.504 30.1606zM348.501 151.68q-7.17331 -10.7536 -7.17331 -23.68q0 -17.6662 12.5029 -30.1691t30.1691 -12.5029q9.45151 0 19.8526 5.56464t15.6461 13.4273l170.667 256
q7.17438 10.7532 7.17438 23.68q0 17.664 -12.5013 30.1653t-30.1653 12.5013h-0.00634766h-176.256l126.421 189.653q7.17334 10.7535 7.17334 23.68q0 17.6662 -12.5029 30.1691t-30.1691 12.5029q-9.45157 0 -19.8526 -5.56464t-15.6461 -13.4274l-170.667 -256
q-7.17438 -10.7531 -7.17438 -23.68q0 -17.664 12.5013 -30.1653t30.1653 -12.5013h0.00637817h176.256z" />
    <glyph glyph-name="bell-off" unicode="&#xe833;" 
d="M386.503 734.704q24.2355 13.6781 61.083 23.3583t64.6765 9.68018q105.93 0 180.899 -74.9695t74.9695 -180.899l-6.10352e-05 -0.201935v-170.579q0 -17.6549 12.4949 -30.1499t30.1498 -12.4949t30.1498 12.4949q12.495 12.4949 12.495 30.1499v170.579v0.103027
q0 92.6244 -45.6725 171.219q-45.6725 78.5944 -124.267 124.267q-78.5945 45.6726 -171.219 45.6725q-37.0944 0 -86.2119 -12.9q-49.1176 -12.8999 -81.4248 -31.1272q-9.67725 -4.90186 -16.5261 -16.0483q-6.84885 -11.1465 -6.84885 -21.9944
q0 -17.655 12.4949 -30.1499t30.1499 -12.4949q12.2341 0 22.608 6.48505zM256.394 298.448v213.224l-0.000213623 0.319336q0 25.7414 8.35916 60.1463q8.35916 34.4048 20.1704 57.2766q4.76233 9.21893 4.76233 19.5953q0 17.6757 -12.5096 30.1853t-30.1853 12.5096
q-10.7639 0 -21.8781 -6.76819t-16.0544 -16.3314q-15.7131 -30.4649 -26.8337 -76.2859q-11.1207 -45.8209 -11.1207 -80.0994l0.00050354 -0.590179v-213.181q0 -35.3099 -24.9899 -60.2997q-24.9899 -24.9899 -60.2997 -24.9899q-26.8437 0 -37.897 -21.3224
t-7.62939e-06 -42.6448q11.0533 -21.3224 37.897 -21.3224h639.672q17.6549 0 30.1498 12.4949t12.4949 30.1499t-12.4949 30.1499t-30.1498 12.4949h-491.908q22.815 39.4564 22.8152 85.2893zM549.151 21.3421q-5.10254 -8.79616 -15.9106 -15.0215
q-10.8082 -6.22534 -20.9771 -6.22534q-10.169 0 -20.9771 6.22532q-10.8081 6.22531 -15.9106 15.0215q-5.1037 8.79417 -15.9118 15.0181q-10.8081 6.22391 -20.976 6.22392q-17.657 0 -30.1533 -12.4964t-12.4963 -30.1533q0 -11.4792 5.76193 -21.4077
q15.3076 -26.3886 47.7319 -45.0645q32.4243 -18.676 62.9314 -18.676q30.507 0 62.9313 18.676t47.7319 45.0645q5.7619 9.92851 5.7619 21.4077q0 17.657 -12.4963 30.1533t-30.1533 12.4963q-10.1678 0 -20.9759 -6.22391q-10.8082 -6.22391 -15.912 -15.018z
M13.0202 822.68l938.185 -938.185q12.3944 -11.9709 29.6259 -11.9709q17.6549 0 30.1498 12.4949t12.4949 30.1499q0 17.2314 -11.9709 29.6259l-938.185 938.185q-12.5741 13.0188 -30.6737 13.0188q-17.655 0 -30.1499 -12.4949t-12.4949 -30.1499
q0 -18.0996 13.0188 -30.6738z" />
    <glyph glyph-name="battery" unicode="&#xe834;" 
d="M85.3342 554.283v-340.565q0 -17.8071 12.4663 -30.4289t29.987 -12.6218h597.76q17.5599 0 30.0067 12.5934q12.4467 12.5934 12.4467 30.4572v340.523q0 17.8358 -12.4647 30.4645t-29.9886 12.6288h-597.76q-17.56 0 -30.0066 -12.5934
q-12.4467 -12.5934 -12.4468 -30.4578zM0.000856369 554.283l-0.000455675 0.341614q0 52.904 37.4416 90.4204q37.4416 37.5164 90.3455 37.622h597.76q52.9038 -0.158447 90.3453 -37.7123q37.4415 -37.5538 37.4415 -90.4578l-0.000183105 -0.213928v-340.565
l0.000427246 -0.341568q0 -52.904 -37.4416 -90.4204q-37.4416 -37.5164 -90.3455 -37.622h-597.76q-52.9038 0.158432 -90.3453 37.7123q-37.4415 37.5538 -37.4415 90.4578l0.000178494 0.213898v340.523zM1024 341.333v85.3333q-0.00274658 17.6613 -12.504 30.1607
q-12.5013 12.4994 -30.1627 12.4994q-17.6612 0 -30.1625 -12.4994t-12.5041 -30.1607v-85.3333q0.00280762 -17.6613 12.5041 -30.1607q12.5013 -12.4994 30.1626 -12.4994t30.1626 12.4995q12.5013 12.4994 12.504 30.1606z" />
    <glyph glyph-name="bluetooth" unicode="&#xe835;" 
d="M554.66 17.7251l131.649 131.649l-131.649 131.649v-263.298zM686.309 618.635l-131.649 131.649v-263.298zM247.209 588.474q-11.9752 12.3987 -11.9752 29.6365q0 17.6613 12.4994 30.1606q12.4994 12.4994 30.1607 12.4994q17.2377 0 29.6365 -11.9752
l469.261 -469.261q12.4903 -12.4941 12.4903 -30.1607q0 -17.6666 -12.4903 -30.1607l-234.63 -234.63q-20.1569 -20.1573 -46.4888 -9.2519t-26.3319 39.4126v938.522q0 28.4818 26.3319 39.3965q26.3319 10.9147 46.4888 -9.2359l234.63 -234.63
q12.4903 -12.4941 12.4903 -30.1606q0 -17.6666 -12.4903 -30.1607l-469.261 -469.261q-12.5786 -13.0236 -30.6849 -13.0236q-17.6613 0 -30.1607 12.4994q-12.4994 12.4994 -12.4994 30.1607q0 18.1062 13.0236 30.6849l307.451 307.451v-205.963z" />
    <glyph glyph-name="bell" unicode="&#xe836;" 
d="M768 298.667v213.333q0 106 -75 181t-181 75t-181 -75t-75 -181v-213.333q0 -45.8566 -22.8267 -85.3333h557.653q-9.45038 16.3397 -16.1387 41.2627q-6.68823 24.923 -6.68823 43.7987zM938.667 128h-853.333q-26.8575 0 -37.9164 21.3333q-11.059 21.3333 0 42.6667
q11.059 21.3333 37.9164 21.3333v0q35.328 0 60.3307 25.0027q25.0027 25.0027 25.0027 60.3307v213.333q0 92.6718 45.696 171.307q45.696 78.6348 124.331 124.331q78.6348 45.696 171.307 45.696q92.6718 0 171.307 -45.696q78.6348 -45.6959 124.331 -124.331
q45.696 -78.6348 45.696 -171.307v-213.333q0 -35.3281 25.0026 -60.3307t60.3307 -25.0026q26.8575 0 37.9164 -21.3333q11.059 -21.3333 0 -42.6667q-11.059 -21.3333 -37.9181 -21.3334zM548.907 21.4187q-5.10504 -8.80073 -15.9188 -15.0292
q-10.8137 -6.2285 -20.9879 -6.2285t-20.9879 6.22851t-15.9188 15.0292q-5.10635 8.79868 -15.92 15.0258q-10.8136 6.2271 -20.9867 6.2271q-17.666 0 -30.1688 -12.5028q-12.5027 -12.5028 -12.5027 -30.1688q0 -11.4851 5.76489 -21.4187
q15.3155 -26.4021 47.7563 -45.0877q32.4409 -18.6855 62.9636 -18.6855q30.5226 0 62.9636 18.6855q32.441 18.6855 47.7564 45.0877q5.76489 9.93337 5.76489 21.4187q0 17.666 -12.5027 30.1688q-12.5028 12.5028 -30.1688 12.5028q-10.173 0 -20.9867 -6.22711
q-10.8137 -6.22711 -15.9199 -15.0258z" />
    <glyph glyph-name="book" unicode="&#xe837;" 
d="M853.333 853.333q17.664 0 30.1653 -12.5013t12.5013 -30.1653v-853.333q0 -17.664 -12.5013 -30.1653t-30.1653 -12.5013h-576v0q-61.824 0 -105.579 43.7547q-43.7547 43.7547 -43.7546 105.579v640q0 61.824 43.7547 105.579q43.7547 43.7546 105.579 43.7546z
M810.667 213.333v554.667h-533.333v0q-26.496 0 -45.248 -18.752t-18.752 -45.248v-505.045q30.2801 14.3788 63.8008 14.3788l0.199219 -0.000137329zM810.667 128h-533.333q-26.496 0 -45.248 -18.752t-18.752 -45.248t18.752 -45.248t45.248 -18.752h533.333v128z" />
    <glyph glyph-name="briefcase" unicode="&#xe838;" 
d="M298.667 640v42.6667q0 52.992 37.504 90.496q37.504 37.504 90.496 37.504h170.667q52.9921 0 90.496 -37.504t37.504 -90.496v-42.6667h128.427q52.8156 -0.140747 90.1947 -37.6196t37.3791 -90.2946l-0.000488281 -0.341827v-426.155l6.10352e-05 -0.129181
q0 -52.8158 -37.379 -90.357q-37.379 -37.5412 -90.1943 -37.7698h-683.52q-52.8156 0.140743 -90.1947 37.6196q-37.3791 37.4789 -37.3791 90.2946l0.000457764 0.341789v426.155l-6.48499e-05 0.129211q0 52.8159 37.379 90.357q37.379 37.5412 90.1944 37.7698z
M298.667 554.667h-128.427q-17.3182 0 -29.7791 -12.6166q-12.4609 -12.6167 -12.4609 -30.3061v-426.155l-0.00138092 -0.342674q0 -17.4885 12.3767 -29.9644t29.8647 -12.6156h128.427v512zM384 554.667v-512h256v512h-256zM725.333 554.667v-512h128.427
q17.3182 0 29.7791 12.6167q12.4609 12.6167 12.4609 30.306v426.155l0.00140381 0.342712q0 17.4886 -12.3767 29.9645t-29.8647 12.6155zM384 640h256v42.6667q0 17.664 -12.5013 30.1653t-30.1653 12.5013h-170.667v0q-17.664 0 -30.1653 -12.5013t-12.5013 -30.1653z
" />
    <glyph glyph-name="camera-off" unicode="&#xe839;" 
d="M682.885 273.415l328.621 -328.621q11.9709 -12.3944 11.9709 -29.6259q0 -17.6549 -12.4949 -30.1499t-30.1498 -12.4949q-17.2314 0 -29.6259 11.9709l-72.7947 72.7947h-749.951q-52.9648 0 -90.4496 37.4848q-37.4848 37.4848 -37.4848 90.4496v469.093
q0 52.9648 37.4848 90.4496q37.4848 37.4847 90.4496 37.4847h24.9899l-140.429 140.429q-13.0186 12.5742 -13.0186 30.6736q0 17.6549 12.4949 30.1498q12.4949 12.4949 30.1499 12.4949q18.0995 0 30.6736 -13.0186l371.266 -371.266l1.1514 -1.10876l236.039 -236.039z
M654.014 181.729q-25.1688 -22.6226 -66.9322 -38.6333t-75.6049 -16.0107q-88.2747 0 -150.749 62.4746t-62.4746 150.749q0 33.8272 15.9988 75.5775t38.6047 66.9148l-114.117 114.16h-110.279q-17.6549 0 -30.1499 -12.4949q-12.4949 -12.4949 -12.4949 -30.1498
v-469.093q0 -17.6549 12.4949 -30.1499q12.4949 -12.4949 30.1499 -12.4949h664.662l-139.107 139.107zM593.544 242.157l-180.217 180.217q-12.3462 -14.7534 -21.0838 -38.8099q-8.7377 -24.0565 -8.7377 -43.2942q0 -52.9648 37.4848 -90.4496
q37.4848 -37.4848 90.4496 -37.4848q19.2376 0 43.2942 8.73773t38.8099 21.0838zM690.006 615.938q5.2417 -7.85645 15.6356 -13.4167t19.8384 -5.56024h0.00640869h170.579v0q17.6549 0 30.1498 -12.4949t12.4949 -30.1498v-398.302q0 -17.6549 12.4949 -30.1499
q12.4949 -12.4949 30.1498 -12.4949t30.1499 12.4949t12.4949 30.1499v398.302q0 52.9649 -37.4847 90.4496t-90.4496 37.4847h-147.764l-72.6241 108.957q-5.2417 7.85638 -15.6356 13.4167q-10.3939 5.56024 -19.8385 5.56024h-0.00634766h-255.869
q-17.6549 0 -30.1499 -12.4949t-12.4949 -30.1498q0 -17.655 12.4949 -30.1499t30.1499 -12.4949h233.054z" />
    <glyph glyph-name="calendar" unicode="&#xe83a;" 
d="M384 768h256v42.6667q0.00268555 17.6613 12.504 30.1607q12.5013 12.4995 30.1627 12.4995q17.6613 0 30.1625 -12.4995q12.5013 -12.4995 12.5041 -30.1607v-42.6667h85.5467q52.9037 0 90.3452 -37.4415t37.4415 -90.3452v-597.76q0 -52.9037 -37.4415 -90.3452
q-37.4415 -37.4415 -90.3452 -37.4415h-597.76q-52.9037 7.62939e-06 -90.3452 37.4415q-37.4415 37.4415 -37.4415 90.3452v597.76v0q0 52.9037 37.4415 90.3452t90.3452 37.4415h85.5467v42.6667v0.00653076q0 17.6641 12.5013 30.1654t30.1653 12.5013t30.1653 -12.5013
t12.5013 -30.1653v-0.00653076zM853.333 426.667h-682.667v-384.213q0 -17.6 12.4267 -30.0267t30.0267 -12.4267h597.76q17.6 0 30.0266 12.4267q12.4267 12.4267 12.4267 30.0267zM384 682.667v-42.6667v-0.00653076q0 -17.664 -12.5013 -30.1653t-30.1653 -12.5013
t-30.1653 12.5013t-12.5013 30.1653v0.00653076v42.6667h-85.5467q-17.5757 0 -30.0145 -12.4388t-12.4388 -30.0145v-128.213h682.667v128.213v0q0 17.5756 -12.4388 30.0145t-30.0145 12.4389h-85.5467v-42.6667q-0.00262451 -17.6613 -12.504 -30.1607
q-12.5014 -12.4995 -30.1627 -12.4995t-30.1626 12.4994q-12.5013 12.4995 -12.504 30.1608v42.6667z" />
    <glyph glyph-name="bookmark" unicode="&#xe83b;" 
d="M768 82.9013v599.765q0 17.664 -12.5013 30.1653t-30.1653 12.5013h-426.667q-17.664 0 -30.1653 -12.5013q-12.5013 -12.5014 -12.5013 -30.1653v-599.765l231.211 165.12q11.1231 7.94011 24.7893 7.94011q13.6661 0 24.7893 -7.94011l231.211 -165.077z
M238.123 -34.7307q-11.123 -7.94011 -24.7893 -7.94011q-17.664 0 -30.1653 12.5013t-12.5013 30.1653v0.00411371v682.667q0 52.992 37.504 90.496q37.504 37.504 90.496 37.504h426.667q52.992 0 90.496 -37.504q37.504 -37.504 37.504 -90.496v-682.667v-0.00411473
q0 -17.664 -12.5013 -30.1653q-12.5013 -12.5013 -30.1653 -12.5013q-13.6663 0 -24.7893 7.94011l-273.877 195.627z" />
    <glyph glyph-name="box" unicode="&#xe83c;" 
d="M568.96 872.363l341.333 -170.667q29.4041 -14.6111 50.2188 -48.1898q20.8147 -33.5787 20.8212 -66.4129v-406.613q-0.0174561 -32.7947 -20.8072 -66.3483q-20.7897 -33.5536 -50.1475 -48.1691l-341.333 -170.667q-27.0328 -13.521 -57.2587 -13.521
q-30.2257 0 -57.2587 13.521l-341.461 170.709q-29.1463 14.6639 -49.7741 48.1331t-20.6277 66.0965q0 0.336395 0.0017662 0.671646v406.187q0.0174561 32.7947 20.8072 66.3483q20.7897 33.5536 50.1475 48.169l341.419 170.752q26.9103 13.3721 56.96 13.3721
t56.9594 -13.3716zM512 474.368l331.051 165.547l-312.107 156.032q-8.94257 4.43054 -18.9227 4.43054t-18.9227 -4.43054l-312.149 -155.989zM896 570.965l-341.333 -170.667v-416.811l317.653 158.848q9.7868 4.86314 16.7251 16.0393q6.93829 11.1762 6.9549 22.1047
v390.486zM469.333 -16.7253v417.024l-341.333 170.667v-390.357q-0.209038 -26.4787 23.3387 -38.3573z" />
    <glyph glyph-name="camera" unicode="&#xe83d;" 
d="M334.165 616.32q-5.24442 -7.86047 -15.6436 -13.4236t-19.8486 -5.56311h-0.00640869h-170.667q-17.664 0 -30.1653 -12.5013t-12.5013 -30.1653v-469.333q0 -17.664 12.5013 -30.1653q12.5013 -12.5013 30.1653 -12.5013h768q17.664 0 30.1653 12.5013
q12.5013 12.5013 12.5013 30.1653v469.333q0 17.664 -12.5013 30.1653t-30.1653 12.5013h-170.667h-0.00640869q-9.4494 0 -19.8486 5.56311t-15.6436 13.4236l-72.6613 109.013h-210.347zM896 682.667q52.992 0 90.496 -37.504q37.504 -37.504 37.504 -90.496v-469.333
q0 -52.992 -37.504 -90.496q-37.504 -37.504 -90.496 -37.504h-768q-52.992 0 -90.496 37.504q-37.504 37.504 -37.504 90.496v469.333q0 52.992 37.504 90.496q37.504 37.504 90.496 37.504h147.84l72.6613 109.013q5.24438 7.86047 15.6436 13.4236t19.8486 5.56311
h0.00637817h256h0.00640869q9.4494 0 19.8487 -5.56311q10.3992 -5.56311 15.6436 -13.4236l72.6613 -109.013h147.84zM512 128q-88.32 0 -150.827 62.5067q-62.5067 62.5067 -62.5067 150.827q0 88.32 62.5067 150.827q62.5067 62.5067 150.827 62.5067
q88.3201 0 150.827 -62.5067q62.5067 -62.5067 62.5067 -150.827q0 -88.32 -62.5067 -150.827q-62.5067 -62.5067 -150.827 -62.5067zM512 213.333q52.992 0 90.496 37.504q37.504 37.504 37.504 90.496t-37.504 90.496q-37.504 37.504 -90.496 37.504
q-52.992 0 -90.496 -37.504t-37.504 -90.496t37.504 -90.496t90.496 -37.504z" />
    <glyph glyph-name="check-circle" unicode="&#xe83e;" 
d="M896 423.68v-39.68q-0.071167 -104.185 -51.5044 -192.588q-51.4332 -88.4038 -139.872 -139.777q-88.4388 -51.3728 -192.623 -51.3728q-104.256 0 -192.72 51.4079q-88.464 51.4079 -139.872 139.872q-51.4079 88.4642 -51.4079 192.72q0 104.256 51.4079 192.72
q51.4079 88.4641 139.872 139.872q88.4641 51.4079 192.72 51.408q33.8154 0 79.6076 -9.74036q45.7922 -9.7403 76.6804 -23.5032q8.75024 -4.19781 18.4551 -4.19781q17.664 0 30.1653 12.5013t12.5013 30.1653q0 11.8196 -7.7326 23.3757t-18.6585 16.0648
q-37.752 16.8212 -93.7204 28.7261q-55.9684 11.9049 -97.2982 11.9049q-95.4329 0 -182.343 -37.1879q-86.9099 -37.1878 -149.762 -100.04q-62.8525 -62.8525 -100.04 -149.762q-37.1878 -86.9099 -37.1878 -182.343q0 -95.4329 37.1879 -182.343
q37.1879 -86.9099 100.04 -149.762q62.8524 -62.8524 149.762 -100.04q86.9099 -37.1879 182.343 -37.1879q95.387 0 182.273 37.17t149.738 99.9922q62.8524 62.8222 100.064 149.69q37.2116 86.8678 37.2576 182.255v39.7227q-0.00268555 17.6613 -12.504 30.1607
t-30.1627 12.4994t-30.1626 -12.4994q-12.5012 -12.4995 -12.504 -30.1607zM414.165 456.832q-12.4007 11.977 -29.641 11.977q-17.664 0 -30.1653 -12.5013t-12.5013 -30.1653q0 -17.2403 11.977 -29.641l128 -128q12.4961 -12.4922 30.1653 -12.4922
q17.6694 0 30.1653 12.4922l469.333 469.333q13.0256 12.5806 13.0256 30.6896q0 17.6639 -12.5013 30.1653t-30.1653 12.5014q-18.1089 0 -30.6897 -13.0256l-439.168 -439.168z" />
    <glyph glyph-name="check" unicode="&#xe83f;" 
d="M200.832 371.499q-12.5806 13.0256 -30.6896 13.0256q-17.664 0 -30.1653 -12.5013t-12.5013 -30.1653q0 -18.1091 13.0256 -30.6896l213.333 -213.333q12.496 -12.4922 30.1653 -12.4922t30.1653 12.4922l469.333 469.333q13.0256 12.5806 13.0256 30.6896
q0 17.664 -12.5013 30.1653t-30.1653 12.5013q-18.1091 0 -30.6896 -13.0256l-439.168 -439.168z" />
    <glyph glyph-name="check-square" unicode="&#xe840;" 
d="M371.499 456.832q-12.4007 11.977 -29.641 11.977q-17.664 0 -30.1653 -12.5013q-12.5014 -12.5013 -12.5014 -30.1653q0 -17.2403 11.9771 -29.641l128 -128q12.496 -12.4922 30.1653 -12.4922t30.1653 12.4922l469.333 469.333q13.0256 12.5806 13.0256 30.6896
q0 17.664 -12.5013 30.1653t-30.1653 12.5013q-18.109 0 -30.6897 -13.0256l-439.168 -439.168zM810.667 384v-298.667q0 -17.664 -12.5014 -30.1653q-12.5013 -12.5013 -30.1653 -12.5013h-597.333q-17.664 0 -30.1653 12.5013q-12.5013 12.5013 -12.5013 30.1653v597.333
q0 17.6639 12.5013 30.1653q12.5013 12.5013 30.1653 12.5013h469.333q17.664 0 30.1653 12.5013t12.5013 30.1653q0 17.6641 -12.5013 30.1653t-30.1653 12.5013h-469.333q-52.992 0 -90.496 -37.504q-37.504 -37.504 -37.504 -90.496v-597.333q0 -52.992 37.504 -90.496
q37.504 -37.504 90.496 -37.504h597.333q52.9919 0 90.496 37.504q37.5041 37.504 37.504 90.496v298.667q-0.00262451 17.6613 -12.504 30.1607q-12.5013 12.4994 -30.1627 12.4994q-17.6613 0 -30.1626 -12.4994t-12.504 -30.1604z" />
    <glyph glyph-name="cast" unicode="&#xe841;" 
d="M76.8 167.253q45.7759 -9.33572 84.7801 -48.3399q39.0042 -39.0042 48.3399 -84.7801q2.88464 -14.1347 15.136 -24.1383q12.2513 -10.0036 26.6774 -10.0036q17.6675 0 30.1714 12.5038q12.5038 12.5038 12.5038 30.1714q0 4.31031 -0.861877 8.53333
q-14.0036 68.6639 -72.5098 127.17q-58.5062 58.5063 -127.17 72.5098q-4.22308 0.861862 -8.53333 0.861862q-17.6675 0 -30.1714 -12.5038t-12.5038 -30.1714q0 -14.4261 10.0036 -26.6774t24.138 -15.1357zM80.64 339.456q112.327 -12.5032 200.661 -100.85
q88.3345 -88.3469 100.822 -200.675q1.75394 -15.7064 14.1803 -26.8224q12.4263 -11.1159 28.2304 -11.1159q17.6671 0 30.1707 12.5036q12.5036 12.5036 12.5036 30.1707q0 2.37547 -0.263641 4.736q-10.2436 92.0775 -64.3387 175.259q-54.0951 83.1815 -137.277 137.277
t-175.259 64.3387q-2.36087 0.263611 -4.736 0.263611q-17.6671 0 -30.1707 -12.5036q-12.5036 -12.5035 -12.5036 -30.1707q0 -15.8041 11.1159 -28.2304t26.8224 -14.1802zM128 554.667v85.3333q0 17.664 12.5013 30.1653t30.1653 12.5013h682.667
q17.664 0 30.1653 -12.5013t12.5013 -30.1653v-512q0 -17.664 -12.5013 -30.1653t-30.1653 -12.5013h-256q-17.6613 -0.00269318 -30.1607 -12.504q-12.4995 -12.5013 -12.4995 -30.1626t12.4995 -30.1626q12.4995 -12.5013 30.1607 -12.504h256q52.992 0 90.496 37.504
q37.504 37.504 37.504 90.496v512q0 52.992 -37.504 90.496q-37.504 37.504 -90.496 37.504h-682.667q-52.992 0 -90.496 -37.504t-37.504 -90.496v-85.3333v-0.00653076q0 -17.664 12.5013 -30.1653q12.5013 -12.5013 30.1653 -12.5013t30.1653 12.5013
q12.5013 12.5013 12.5013 30.1653zM85.3333 42.6667zM42.6667 42.6667v-0.00653076q0 -17.664 12.5013 -30.1653q12.5013 -12.5013 30.1653 -12.5013t30.1653 12.5013q12.5013 12.5013 12.5013 30.1653v0.00653076v0.00653076q0 17.664 -12.5013 30.1653
q-12.5013 12.5013 -30.1653 12.5013t-30.1653 -12.5013q-12.5013 -12.5013 -12.5013 -30.1653v-0.00653458z" />
    <glyph glyph-name="chevron-down" unicode="&#xe842;" 
d="M286.165 542.165q-12.4008 11.977 -29.641 11.977q-17.664 0 -30.1653 -12.5013t-12.5013 -30.1653q0 -17.2402 11.977 -29.641l256 -256q12.496 -12.4922 30.1653 -12.4922q17.6694 0 30.1653 12.4922l256 256q13.0256 12.5806 13.0256 30.6897
q0 17.6641 -12.5013 30.1653q-12.5013 12.5013 -30.1653 12.5013q-18.1091 0 -30.6897 -13.0257l-225.835 -225.835z" />
    <glyph glyph-name="chevron-left" unicode="&#xe843;" 
d="M670.165 609.835q13.0256 12.5806 13.0256 30.6896q0 17.664 -12.5013 30.1653t-30.1653 12.5013q-18.109 0 -30.6897 -13.0256l-256 -256q-12.4922 -12.496 -12.4922 -30.1653t12.4922 -30.1653l256 -256q12.4008 -11.977 29.641 -11.977q17.664 0 30.1653 12.5013
t12.5013 30.1653q0 17.2403 -11.977 29.641l-225.835 225.835z" />
    <glyph glyph-name="chevron-right" unicode="&#xe844;" 
d="M353.835 158.165q-11.977 -12.4007 -11.977 -29.641q0 -17.664 12.5013 -30.1653t30.1653 -12.5013q17.2403 0 29.641 11.977l256 256q12.4922 12.4961 12.4922 30.1653q0 17.6693 -12.4922 30.1653l-256 256q-12.4007 11.977 -29.641 11.977
q-17.664 0 -30.1653 -12.5013t-12.5013 -30.1653q0 -17.2404 11.977 -29.6411l225.835 -225.835z" />
    <glyph glyph-name="chevron-up" unicode="&#xe845;" 
d="M737.835 225.835q12.4008 -11.977 29.641 -11.977q17.664 0 30.1653 12.5013t12.5013 30.1653q0 17.2403 -11.977 29.641l-256 256q-12.496 12.4922 -30.1653 12.4922t-30.1653 -12.4922l-256 -256q-11.977 -12.4007 -11.977 -29.641q0 -17.664 12.5013 -30.1653
t30.1653 -12.5013q17.2403 0 29.641 11.977l225.835 225.835z" />
    <glyph glyph-name="chevrons-down" unicode="&#xe846;" 
d="M328.832 371.499q-12.5805 13.0256 -30.6896 13.0256q-17.664 0 -30.1653 -12.5013q-12.5013 -12.5013 -12.5013 -30.1653q0 -18.1091 13.0257 -30.6896l213.333 -213.333q12.496 -12.4922 30.1653 -12.4922q17.6694 0 30.1653 12.4922l213.333 213.333
q11.9771 12.4008 11.9771 29.641q0 17.664 -12.5013 30.1653t-30.1653 12.5013q-17.2403 0 -29.6411 -11.9771l-183.168 -183.168zM328.832 670.165q-12.4007 11.977 -29.641 11.977q-17.664 0 -30.1653 -12.5013t-12.5013 -30.1653q0 -17.2402 11.977 -29.6411
l213.333 -213.333q12.496 -12.4922 30.1653 -12.4922q17.6694 0 30.1653 12.4922l213.333 213.333q13.0256 12.5806 13.0256 30.6896q0 17.6639 -12.5013 30.1653t-30.1653 12.5014q-18.1089 0 -30.6897 -13.0256l-183.168 -183.168z" />
    <glyph glyph-name="chevrons-right" unicode="&#xe847;" 
d="M524.501 200.832q-11.9771 -12.4008 -11.9771 -29.641q0 -17.664 12.5013 -30.1653t30.1653 -12.5013q17.2403 0 29.6411 11.977l213.333 213.333q12.4922 12.4961 12.4922 30.1653q0 17.6693 -12.4922 30.1653l-213.333 213.333q-12.4008 11.9771 -29.6411 11.9771
q-17.6641 0 -30.1653 -12.5013q-12.5013 -12.5013 -12.5013 -30.1653q0 -17.2404 11.977 -29.6411l183.168 -183.168zM225.835 200.832q-11.977 -12.4008 -11.977 -29.641q0 -17.664 12.5013 -30.1653t30.1653 -12.5013q17.2403 0 29.641 11.977l213.333 213.333
q12.4922 12.496 12.4922 30.1653t-12.4922 30.1653l-213.333 213.333q-12.4007 11.977 -29.641 11.977q-17.664 0 -30.1653 -12.5013t-12.5013 -30.1653q0 -17.2403 11.977 -29.6411l183.168 -183.168z" />
    <glyph glyph-name="chevrons-up" unicode="&#xe848;" 
d="M695.168 396.501q12.4008 -11.977 29.6411 -11.977q17.6639 0 30.1653 12.5013t12.5013 30.1653q0 17.2403 -11.977 29.641l-213.333 213.333q-12.4959 12.4922 -30.1653 12.4922q-17.6693 0 -30.1653 -12.4922l-213.333 -213.333q-11.977 -12.4007 -11.977 -29.641
q0 -17.664 12.5013 -30.1653t30.1653 -12.5013q17.2403 0 29.641 11.9771l183.168 183.168zM512 281.003l183.168 -183.168q12.4008 -11.977 29.641 -11.977q17.664 0 30.1653 12.5013t12.5013 30.1653q0 17.2403 -11.977 29.641l-213.333 213.333
q-12.4959 12.4922 -30.1653 12.4922q-17.6693 0 -30.1653 -12.4922l-213.333 -213.333q-11.977 -12.4007 -11.977 -29.641q0 -17.664 12.5013 -30.1653t30.1653 -12.5013q17.2403 0 29.641 11.977z" />
    <glyph glyph-name="chevrons-left" unicode="&#xe849;" 
d="M499.499 567.168q13.0256 12.5805 13.0256 30.6896q0 17.664 -12.5013 30.1653t-30.1653 12.5013q-18.1091 0 -30.6896 -13.0256l-213.333 -213.333q-12.4922 -12.496 -12.4922 -30.1653t12.4922 -30.1653l213.333 -213.333q12.4007 -11.977 29.641 -11.977
q17.664 0 30.1653 12.5013t12.5013 30.1653q0 17.2403 -11.9771 29.641l-183.168 183.168zM798.165 567.168q13.0256 12.5806 13.0256 30.6896q0 17.6641 -12.5013 30.1654t-30.1653 12.5013q-18.109 0 -30.6897 -13.0256l-213.333 -213.333
q-12.4922 -12.4961 -12.4922 -30.1653q0 -17.6693 12.4922 -30.1653l213.333 -213.333q12.4008 -11.977 29.641 -11.977q17.664 0 30.1653 12.5013t12.5013 30.1653q0 17.2403 -11.977 29.641l-183.168 183.168z" />
    <glyph glyph-name="circle" unicode="&#xe84a;" 
d="M512 -85.3333q-95.4834 0 -182.397 37.1694t-149.756 100.011t-100.011 149.756q-37.1694 86.9139 -37.1694 182.397q0 95.4834 37.1694 182.397q37.1694 86.9138 100.011 149.755q62.8417 62.8417 149.756 100.011q86.9138 37.1694 182.397 37.1694
q95.4833 0 182.397 -37.1694t149.756 -100.011q62.8417 -62.8417 100.011 -149.755t37.1694 -182.397q0 -95.4833 -37.1694 -182.397t-100.011 -149.756q-62.8417 -62.8417 -149.755 -100.011q-86.9138 -37.1694 -182.398 -37.1694zM512 -2.87646e-06
q104.256 0 192.72 51.408q88.4642 51.408 139.872 139.872q51.408 88.4641 51.408 192.72q0 159 -112.5 271.5t-271.5 112.5t-271.5 -112.5t-112.5 -271.5q0 -104.256 51.4079 -192.72q51.4079 -88.4642 139.872 -139.872t192.72 -51.408z" />
    <glyph glyph-name="clipboard" unicode="&#xe84b;" 
d="M298.667 768q0.160065 35.2517 25.1404 60.2925q24.9804 25.0408 60.0649 25.0408h256.256q35.3231 0 60.1841 -24.9042q24.8611 -24.9042 25.0212 -60.4291h42.6667q53 0 90.5 -37.5t37.5 -90.5v-597.333q0 -52.992 -37.504 -90.496q-37.504 -37.504 -90.496 -37.504
h-512q-52.992 0 -90.496 37.504q-37.504 37.504 -37.504 90.496v597.333q0 53 37.5 90.5t90.5 37.5h42.6667zM298.667 682.667h-42.6667q-17.664 0 -30.1653 -12.5013t-12.5013 -30.1653v-597.333q0 -17.664 12.5013 -30.1653q12.5013 -12.5013 30.1653 -12.5013h512
q17.664 0 30.1653 12.5013q12.5013 12.5013 12.5013 30.1653v597.333q0 17.664 -12.5013 30.1653t-30.1653 12.5013h-42.6667q-0.160034 -35.2516 -25.1404 -60.2925t-60.0649 -25.0408h-256.256q-35.275 0.0176392 -60.2402 24.9954q-24.9652 24.9777 -24.9652 60.2526z
M383.872 768l0.127991 -0.426697v-84.48l-0.0852966 -0.426636h256.213l-0.127991 0.426636v84.48l0.0853271 0.426697h-256.213z" />
    <glyph glyph-name="chrome" unicode="&#xe84c;" 
d="M462.379 -82.7733q-2.9249 0.141014 -5.80267 0.682663q-115.259 13.5661 -209.988 78.4471t-149.325 167.173q-54.5962 102.292 -54.5962 220.47q0 152.559 89.3867 275.584q2.03531 3.35077 4.65067 6.27197q58.2007 77.6157 168.05 132.547
q109.849 54.9309 206.862 54.9309l0.38382 -0.000183105h0.0444336q128.035 0 254.41 -83.2589q126.375 -83.2588 176.905 -200.901q37.9733 -88.2731 37.9733 -185.173q0 -95.4833 -37.1694 -182.397q-37.1694 -86.9139 -100.011 -149.756
q-62.8417 -62.8417 -149.755 -100.011q-86.9138 -37.1694 -182.397 -37.1694q-25.1093 0 -49.6217 2.55989zM441.771 6.4l95.616 165.76q-12.6666 -1.52039 -25.4241 -1.52039q-53.5173 0 -108.925 33.574q-55.4075 33.574 -80.1792 81.0131l-155.307 268.672
q-16.3747 -33.1481 -27.9635 -82.7742q-11.5888 -49.626 -11.5888 -86.598l0.000366211 -0.52652q0 -139.969 89.4003 -246.316q89.4003 -106.348 224.371 -131.284zM537.088 0.810669q97.4761 6.35225 180.188 59.9092q82.7114 53.557 130.776 139.576
q48.0649 86.0191 48.0649 183.702q0 65.8853 -21.9621 128.002h-191.488q42.6667 -56.7984 42.6667 -128q0 -61.9263 -33.024 -114.091zM619.477 314.453l3.20001 5.54666q0.947571 1.67657 1.79199 2.85867q15.5053 28.5639 15.5053 61.0651q0 52.992 -37.504 90.496
t-90.496 37.504t-90.496 -37.504t-37.504 -90.496q0 -30.7109 13.9347 -58.0784l3.41333 -5.84534q0.778473 -1.31683 1.53601 -2.90134q15.4878 -25.3376 47.4659 -43.2697q31.9781 -17.9322 61.6743 -17.9322q28.852 0 60.3432 17.1571q31.4911 17.1571 47.1353 41.3995z
M220.16 633.515l95.7013 -165.589q22.9308 53.5691 80.3994 91.4857q57.4686 37.9166 115.739 37.9223h319.317q-47.1544 70.656 -140.646 120.661t-178.437 50.0054l-0.234497 -6.10352e-05l-0.430847 0.000244141q-73.1831 0 -158.591 -39.4043
q-85.4079 -39.4042 -132.904 -95.0813h0.0866547z" />
    <glyph glyph-name="clock" unicode="&#xe84d;" 
d="M512 -85.3333q-95.4834 0 -182.397 37.1694t-149.756 100.011t-100.011 149.756q-37.1694 86.9139 -37.1694 182.397q0 95.4834 37.1694 182.397q37.1694 86.9138 100.011 149.755q62.8417 62.8417 149.756 100.011q86.9138 37.1694 182.397 37.1694
q95.4833 0 182.397 -37.1694t149.756 -100.011q62.8417 -62.8417 100.011 -149.755t37.1694 -182.397q0 -95.4833 -37.1694 -182.397t-100.011 -149.756q-62.8417 -62.8417 -149.755 -100.011q-86.9138 -37.1694 -182.398 -37.1694zM512 -2.87646e-06
q104.256 0 192.72 51.408q88.4642 51.408 139.872 139.872q51.408 88.4641 51.408 192.72q0 159 -112.5 271.5t-271.5 112.5t-271.5 -112.5t-112.5 -271.5q0 -104.256 51.4079 -192.72q51.4079 -88.4642 139.872 -139.872t192.72 -51.408zM554.667 640
q0 17.664 -12.5013 30.1653t-30.1653 12.5013t-30.1653 -12.5013t-12.5013 -30.1653v-256q0.00372314 -17.6715 12.5013 -30.1653l128 -128q12.4008 -11.977 29.641 -11.977q17.664 0 30.1653 12.5013t12.5013 30.1653q0 17.2403 -11.977 29.641l-115.499 115.499z" />
    <glyph glyph-name="cloud-lightning" unicode="&#xe84e;" 
d="M384.07 896h-0.038147q-104.255 0 -192.718 -51.4075t-139.871 -139.871q-51.4075 -88.4633 -51.4075 -192.718q0 -93.7272 58.0418 -192.174q58.0418 -98.4471 140.053 -143.823q9.47714 -5.10799 20.2432 -5.10799q17.6638 0 30.165 12.5012
q12.5012 12.5012 12.5012 30.1651q0 10.286 -6.3313 21.1585q-6.33128 10.8726 -15.2772 15.9492q-63.7573 35.2984 -108.88 111.857q-45.1229 76.5585 -45.1229 149.435q0 123.647 87.5085 211.155q87.5085 87.5085 211.155 87.5085q95.7631 0 180.49 -65.6199
q84.7267 -65.6199 108.68 -158.339q3.41962 -13.2446 15.5209 -22.6204q12.1013 -9.37592 25.7801 -9.37927h53.7595l0.214417 0.00012207q70.6553 0 120.66 -50.0049q50.0049 -50.0049 50.0049 -120.66q0 -57.7503 -40.0542 -106.755q-40.0543 -49.0048 -96.6496 -60.4967
q-14.1487 -2.87306 -24.1622 -15.1243q-10.0135 -12.2512 -10.0135 -26.6887q0 -17.6639 12.5012 -30.1651t30.1651 -12.5012q4.28821 0 8.49054 0.853348q84.8929 17.238 144.974 90.7452q60.0811 73.5072 60.0812 160.133q0 105.983 -75.0073 180.99t-180.99 75.0073
l-0.257324 -0.00012207h-22.1865q-37.4694 105.979 -143.542 180.987t-218.481 75.0106zM434.16 -61.6442q-7.17325 -10.7534 -7.17325 -23.6798q0 -17.666 12.5027 -30.1688q12.5028 -12.5028 30.1688 -12.5028q9.45139 0 19.8524 5.56459q10.4011 5.5646 15.6459 13.4272
l170.665 255.998q7.17432 10.7531 7.17432 23.6798q0 17.6638 -12.5012 30.165t-30.165 12.5012h-0.00634766h-176.254l126.42 189.652q7.17322 10.7535 7.17322 23.6798q0 17.666 -12.5028 30.1688t-30.1688 12.5028q-9.45135 0 -19.8524 -5.56461
q-10.4011 -5.56458 -15.6459 -13.4272l-170.665 -255.998q-7.17432 -10.753 -7.17432 -23.6798q0 -17.6638 12.5012 -30.165t30.165 -12.5012h0.00637817h176.254z" />
    <glyph glyph-name="cloud-drizzle" unicode="&#xe84f;" 
d="M298.832 85.3333v-85.3333q0.00271606 -17.6613 12.504 -30.1607q12.5013 -12.4994 30.1626 -12.4994t30.1626 12.4994t12.5041 30.1607v85.3333q-0.00268555 17.6613 -12.504 30.1607t-30.1627 12.4994t-30.1627 -12.4994t-12.5039 -30.1607zM298.832 341.333v-85.3333
q0.00271606 -17.6613 12.504 -30.1607q12.5013 -12.4994 30.1626 -12.4994t30.1626 12.4994q12.5014 12.4994 12.5041 30.1607v85.3333q-0.00268555 17.6613 -12.504 30.1607q-12.5013 12.4994 -30.1626 12.4994t-30.1626 -12.4994t-12.5041 -30.1607zM640.165 85.3333
v-85.3333q0.00274658 -17.6613 12.5041 -30.1607q12.5013 -12.4994 30.1626 -12.4994t30.1626 12.4994t12.504 30.1607v85.3333q-0.00262451 17.6613 -12.504 30.1607q-12.5013 12.4994 -30.1627 12.4994q-17.6613 0 -30.1626 -12.4994t-12.504 -30.1607zM640.165 341.333
v-85.3333q0.00274658 -17.6613 12.504 -30.1607t30.1627 -12.4994q17.6613 0 30.1626 12.4994t12.504 30.1607v85.3333q-0.00268555 17.6613 -12.504 30.1607q-12.5014 12.4994 -30.1627 12.4994t-30.1626 -12.4994t-12.504 -30.1607zM469.498 0v-85.3333
q0 -17.664 12.5013 -30.1653t30.1653 -12.5013t30.1653 12.5013t12.5013 30.1653v85.3333q0 17.664 -12.5013 30.1653t-30.1653 12.5013t-30.1653 -12.5013t-12.5013 -30.1653zM469.498 256v-85.3333q0 -17.664 12.5013 -30.1653t30.1653 -12.5013t30.1653 12.5013
t12.5013 30.1653v85.3333q0 17.664 -12.5013 30.1653t-30.1653 12.5013t-30.1653 -12.5013t-12.5013 -30.1653zM405.498 895.36q-10.7287 0.600952 -21.4753 0.600952q-104.256 0 -192.72 -51.408q-88.4642 -51.4079 -139.872 -139.872q-51.408 -88.4642 -51.408 -192.72
q0 -76.4299 42.2461 -164.303q42.2461 -87.8731 101.939 -135.605q11.4281 -8.65823 25.7657 -8.65823q17.664 0 30.1653 12.5013t12.5013 30.1653q0 19.8507 -15.1844 32.6369q-46.4523 37.1251 -79.3279 105.485q-32.8756 68.3596 -32.8756 127.825
q0 123.648 87.5093 211.157q87.5093 87.5093 211.157 87.5093q95.7801 0 180.511 -65.6343q84.7312 -65.6343 108.674 -158.374q3.41968 -13.2446 15.521 -22.6206q12.1014 -9.37598 25.7803 -9.37939h53.76q70.5552 -0.100586 120.489 -50.1059t49.934 -120.561
q0 -46.1905 -29.9445 -91.9954t-72.2548 -64.3354q-10.3873 -4.69606 -17.7386 -16.0873q-7.35132 -11.3913 -7.35132 -22.7907q0 -17.664 12.5013 -30.1653q12.5014 -12.5013 30.1653 -12.5013q8.66406 0 16.6419 3.37938q63.4658 27.7958 108.382 96.5032
q44.9165 68.7073 44.9165 137.993q0 105.859 -74.9197 180.867t-180.779 75.1326h-22.2293q-35.2886 99.7805 -135.049 174.601q-99.7607 74.8205 -205.431 80.7599z" />
    <glyph glyph-name="cloud-rain" unicode="&#xe850;" 
d="M640.165 341.333v-341.333q0.00274658 -17.6613 12.5041 -30.1607q12.5013 -12.4994 30.1626 -12.4994t30.1626 12.4994t12.504 30.1607v341.333q-0.00268555 17.6613 -12.504 30.1607q-12.5014 12.4994 -30.1627 12.4994t-30.1626 -12.4994t-12.504 -30.1607z
M298.832 341.333v-341.333q0.00271606 -17.6613 12.504 -30.1607q12.5013 -12.4994 30.1626 -12.4994t30.1626 12.4994t12.5041 30.1607v341.333q-0.00268555 17.6613 -12.504 30.1607q-12.5013 12.4994 -30.1626 12.4994t-30.1626 -12.4994t-12.5041 -30.1607zM469.498 256
v-341.333q0 -17.664 12.5013 -30.1653t30.1653 -12.5013t30.1653 12.5013t12.5013 30.1653v341.333q0 17.664 -12.5013 30.1653t-30.1653 12.5013t-30.1653 -12.5013t-12.5013 -30.1653zM405.498 895.36q-10.7287 0.600952 -21.4753 0.600952q-104.256 0 -192.72 -51.408
q-88.4642 -51.4079 -139.872 -139.872q-51.408 -88.4642 -51.408 -192.72q0 -76.4299 42.2461 -164.303q42.2461 -87.8731 101.939 -135.605q11.4281 -8.65823 25.7657 -8.65823q17.664 0 30.1653 12.5013t12.5013 30.1653q0 19.8507 -15.1844 32.6369
q-46.4523 37.1251 -79.3279 105.485q-32.8756 68.3596 -32.8756 127.825q0 123.648 87.5093 211.157q87.5093 87.5093 211.157 87.5093q95.7801 0 180.511 -65.6343q84.7312 -65.6343 108.674 -158.374q3.41968 -13.2446 15.521 -22.6206q12.1014 -9.37598 25.7803 -9.37939
h53.76q70.5552 -0.100586 120.489 -50.1059t49.934 -120.561q0 -46.1905 -29.9445 -91.9954t-72.2548 -64.3354q-10.3873 -4.69606 -17.7386 -16.0873q-7.35132 -11.3913 -7.35132 -22.7907q0 -17.664 12.5013 -30.1653q12.5014 -12.5013 30.1653 -12.5013
q8.66406 0 16.6419 3.37938q63.4658 27.7958 108.382 96.5032q44.9165 68.7073 44.9165 137.993q0 105.859 -74.9197 180.867t-180.779 75.1326h-22.2293q-35.2886 99.7805 -135.049 174.601q-99.7607 74.8205 -205.431 80.7599z" />
    <glyph glyph-name="cloud-off" unicode="&#xe851;" 
d="M420.662 767.37q-1.82129 0.157043 -3.64935 0.157043q-16.1537 0 -28.554 -11.3914t-13.7678 -27.4871q-0.173981 -1.91821 -0.173981 -3.84442q0 -16.0814 11.3339 -28.4995q11.3339 -12.418 27.3483 -13.8831q87.061 -7.88904 163.705 -73.4874t97.8783 -150.398
q3.31854 -13.2929 15.3636 -22.7141q12.0451 -9.42117 25.746 -9.44003h53.4339l0.0993652 3.05176e-05q37.7929 0 79.2469 -22.3409q41.454 -22.341 62.2344 -53.908q11.7054 -17.7652 19.9896 -45.3946q8.28418 -27.6294 8.28418 -48.9041q0 -34.614 -13.4333 -66.5148
q-3.35638 -7.96089 -3.35638 -16.6003q0 -11.6568 7.58075 -23.1613q7.58069 -11.5045 18.2921 -16.1031q7.94427 -3.38405 16.579 -3.38405q11.6605 0 23.0963 7.61385q11.4359 7.61385 15.9335 18.3719q20.1473 47.8464 20.1473 99.7614q0 31.9097 -12.4255 73.351
t-29.9824 68.0865q-31.1687 47.3683 -93.3578 80.8922t-118.892 33.5239l-0.120972 -3.05176e-05h-21.8768q-33.4063 96.6531 -129.13 171.573q-95.7236 74.9197 -197.572 84.1255zM197.544 719.608q-114.979 -63.9664 -166.458 -185.541
q-51.4786 -121.575 -17.6395 -249.223q33.8693 -127.674 138.699 -207.326q104.83 -79.6523 236.191 -77.5413h380.989q44.464 0 86.5689 15.3521q16.5021 6.0444 23.9285 22.0358q7.42645 15.9914 1.44513 32.5922q-4.15833 11.6285 -15.8412 19.8583
q-11.6829 8.22977 -24.0324 8.22977q-7.45166 0 -14.4558 -2.5438q-28.1131 -10.2347 -57.6558 -10.2347h-381.628q-2.38364 -0.0382309 -4.76746 -0.0382309q-94.8603 0 -179.091 64.9223q-84.2309 64.9223 -108.386 156.656q-10.074 37.8307 -10.074 76.9796
q0 72.6697 44.8971 149.187q44.8971 76.5172 108.335 111.964q15.3542 8.54083 20.2296 25.5229t-3.59816 32.4314q-4.97447 9.1134 -15.8432 15.5633q-10.8687 6.44983 -21.2515 6.44983q-10.9738 0 -20.5611 -5.33899zM13.0202 822.68l938.185 -938.185
q12.3944 -11.9709 29.6259 -11.9709q17.6549 0 30.1498 12.4949t12.4949 30.1499q0 17.2314 -11.9709 29.6259l-938.185 938.185q-12.5741 13.0188 -30.6737 13.0188q-17.655 0 -30.1499 -12.4949t-12.4949 -30.1499q0 -18.0996 13.0188 -30.6738z" />
    <glyph glyph-name="codepen" unicode="&#xe852;" 
d="M535.253 846.421l426.667 -277.333q8.03284 -5.22162 13.7209 -15.6978q5.68805 -10.4761 5.69232 -20.0569v-298.667q-0.00421143 -9.58092 -5.69232 -20.057q-5.68805 -10.4761 -13.721 -15.6977l-426.667 -277.333q-10.605 -6.89339 -23.2533 -6.89339
q-12.6484 0 -23.2533 6.89339l-426.667 277.333q-8.03294 5.22159 -13.721 15.6977q-5.6881 10.4761 -5.69227 20.057v298.667q0.00418091 9.58087 5.6923 20.0569q5.68812 10.4761 13.721 15.6977l426.667 277.333q10.6049 6.89337 23.2533 6.89337
q12.6483 0 23.2534 -6.89325zM469.333 732.075l-307.712 -200.107l137.045 -95.872l170.667 119.467v176.469v0.0430298zM554.667 732.075v-176.555l170.667 -119.467l137.045 95.9147l-307.712 200.064v0.0432739zM512 286.72l138.923 97.28l-138.923 97.28
l-138.923 -97.28zM896 316.587v134.741l-96.256 -67.328zM862.379 235.947l-137.045 95.9573l-170.667 -119.467v-176.469l307.712 200.021v-0.0422974zM161.621 235.947l307.712 -199.979v176.469l-170.667 119.467l-137.045 -95.9147zM128 316.587l96.256 67.4133
l-96.256 67.4133v-134.827z" />
    <glyph glyph-name="cloud-snow" unicode="&#xe853;" 
d="M405.632 852.693q-10.7517 0.603577 -21.5212 0.603577q-104.256 0 -192.72 -51.4079q-88.4641 -51.408 -139.872 -139.872t-51.408 -192.72q0 -76.4309 42.2471 -164.305q42.2471 -87.8737 101.941 -135.606q11.6258 -9.17807 26.4378 -9.17807
q17.664 0 30.1653 12.5013t12.5013 30.1653q0 20.3495 -15.8138 33.1567q-46.4745 37.1254 -79.3659 105.498t-32.8914 127.855q0 123.648 87.5094 211.157q87.5093 87.5093 211.157 87.5093q95.7947 0 180.529 -65.647q84.7344 -65.647 108.667 -158.404
q3.41968 -13.2447 15.5211 -22.6207q12.1013 -9.37598 25.7803 -9.37933h53.76q70.5728 -0.0830383 120.519 -50.0883q49.9465 -50.0053 49.9465 -120.578q0 -46.1905 -29.9443 -91.9954q-29.9443 -45.8049 -72.2548 -64.3354q-10.3873 -4.69609 -17.7386 -16.0873
t-7.35132 -22.7907q0 -17.664 12.5013 -30.1653q12.5013 -12.5014 30.1653 -12.5014q8.66412 0 16.642 3.37938q63.4656 27.7958 108.382 96.5032q44.9166 68.7074 44.9166 137.993q0 105.859 -74.9198 180.867t-180.779 75.1325h-22.272q-35.2885 99.7805 -135.049 174.601
q-99.7607 74.8204 -205.431 80.759zM682.667 256zM640 256v-0.00653076q0 -17.664 12.5013 -30.1653t30.1653 -12.5013q17.6641 0 30.1653 12.5013t12.5013 30.1654v0.0065155v0.00653076q0 17.664 -12.5013 30.1653t-30.1654 12.5013q-17.6639 0 -30.1653 -12.5013
t-12.5013 -30.1653zM512 170.667zM469.333 170.667q0 -17.664 12.5013 -30.1653t30.1653 -12.5013t30.1653 12.5013t12.5013 30.1653t-12.5013 30.1653t-30.1653 12.5013t-30.1653 -12.5013q-12.5013 -12.5013 -12.5013 -30.1653zM341.333 256zM298.667 256v-0.00653076
q0 -17.664 12.5013 -30.1653t30.1653 -12.5013t30.1654 12.5013q12.5013 12.5013 12.5013 30.1653v0.00653076v0.00653076q0 17.664 -12.5013 30.1653t-30.1653 12.5013t-30.1653 -12.5013t-12.5013 -30.1653zM341.333 42.6667zM298.667 42.6667v-0.00653076
q0 -17.664 12.5013 -30.1653q12.5013 -12.5013 30.1653 -12.5013t30.1653 12.5013q12.5013 12.5013 12.5013 30.1653v0.00653076v0.00653076q0 17.664 -12.5013 30.1653q-12.5013 12.5013 -30.1653 12.5013t-30.1653 -12.5013q-12.5013 -12.5013 -12.5013 -30.1653
v-0.00653458zM512 -42.6667zM469.333 -42.6667q0 -17.664 12.5013 -30.1653q12.5013 -12.5013 30.1653 -12.5013t30.1653 12.5013q12.5013 12.5013 12.5013 30.1653q0 17.664 -12.5013 30.1653q-12.5013 12.5013 -30.1654 12.5013q-17.664 0 -30.1653 -12.5013
q-12.5013 -12.5013 -12.5012 -30.1653zM682.667 42.6667zM640 42.6667v-0.00653076q0 -17.664 12.5013 -30.1653q12.5013 -12.5013 30.1653 -12.5013q17.6641 0 30.1653 12.5013q12.5012 12.5013 12.5013 30.1654v0.00653076v0.00653076q0 17.664 -12.5013 30.1653
q-12.5013 12.5013 -30.1654 12.5013q-17.664 0 -30.1653 -12.5014q-12.5013 -12.5013 -12.5013 -30.1653zM682.667 42.6667zM640 42.6667v-0.00653076q0 -17.664 12.5013 -30.1653q12.5013 -12.5013 30.1653 -12.5013q17.6641 0 30.1653 12.5013
q12.5012 12.5013 12.5013 30.1654v0.00653076v0.00653076q0 17.664 -12.5013 30.1653q-12.5013 12.5013 -30.1654 12.5013q-17.664 0 -30.1653 -12.5014q-12.5013 -12.5013 -12.5013 -30.1653z" />
    <glyph glyph-name="compass" unicode="&#xe854;" 
d="M512 -85.3333q-95.4834 0 -182.397 37.1694t-149.756 100.011t-100.011 149.756q-37.1694 86.9139 -37.1694 182.397q0 95.4834 37.1694 182.397q37.1694 86.9138 100.011 149.755q62.8417 62.8417 149.756 100.011q86.9138 37.1694 182.397 37.1694
q95.4833 0 182.397 -37.1694t149.756 -100.011q62.8417 -62.8417 100.011 -149.755t37.1694 -182.397q0 -95.4833 -37.1694 -182.397t-100.011 -149.756q-62.8417 -62.8417 -149.755 -100.011q-86.9138 -37.1694 -182.398 -37.1694zM512 -2.87646e-06
q104.256 0 192.72 51.408q88.4642 51.408 139.872 139.872q51.408 88.4641 51.408 192.72q0 159 -112.5 271.5t-271.5 112.5t-271.5 -112.5t-112.5 -271.5q0 -104.256 51.4079 -192.72q51.4079 -88.4642 139.872 -139.872t192.72 -51.408zM455.253 440.747l-56.6613 -170.24
l170.155 56.7467l56.7466 170.155l-170.155 -56.7467zM733.397 551.424l-90.4533 -271.36q-2.79224 -8.38898 -10.7056 -16.3023q-7.91345 -7.91335 -16.3024 -10.7057l-271.36 -90.4533q-6.57111 -2.19141 -13.4981 -2.19141q-17.664 0 -30.1653 12.5013t-12.5013 30.1653
q0 6.92693 2.19141 13.4981l90.4533 271.36q2.79227 8.38898 10.7056 16.3023q7.91336 7.91336 16.3024 10.7057l271.36 90.4533q6.57111 2.19141 13.498 2.19141q17.664 0 30.1653 -12.5013t12.5013 -30.1653q0 -6.92694 -2.19116 -13.4982z" />
    <glyph glyph-name="copy" unicode="&#xe855;" 
d="M426.667 426.539v-383.744l-0.000183105 -0.128193q0 -17.664 12.5013 -30.1653q12.5013 -12.5013 30.1653 -12.5013l0.128204 0.000192607h383.744l0.128174 -0.000192611q17.664 0 30.1653 12.5013q12.5013 12.5013 12.5013 30.1653l-0.000183105 0.128193v383.744
l0.000183105 0.128204q0 17.664 -12.5014 30.1653q-12.5013 12.5013 -30.1653 12.5013l-0.128174 -0.000183105h-383.744l-0.128204 0.000183105q-17.664 0 -30.1653 -12.5013t-12.5013 -30.1653zM341.333 426.539l-6.10352e-05 0.128052q0 52.992 37.504 90.496
q37.504 37.504 90.496 37.504l0.128082 -6.10352e-05h383.744l0.128052 6.10352e-05q52.9919 0 90.496 -37.504t37.504 -90.496l-6.10352e-05 -0.128082v-383.744l6.10352e-05 -0.128063q0 -52.992 -37.504 -90.496q-37.504 -37.504 -90.496 -37.504l-0.128052 6.10352e-05
h-383.744l-0.128052 -6.10352e-05q-52.992 0 -90.496 37.504t-37.504 90.496l6.10352e-05 0.128067zM213.333 298.667h-42.6667q-17.664 0 -30.1653 12.5013t-12.5013 30.1653v384q0 17.664 12.5013 30.1653t30.1653 12.5013h384q17.664 0 30.1653 -12.5013
t12.5013 -30.1653v-42.6667q0 -17.664 12.5013 -30.1653t30.1653 -12.5013t30.1653 12.5013t12.5013 30.1654v42.6667q0 52.9921 -37.504 90.496t-90.496 37.504h-384q-52.992 0 -90.496 -37.504q-37.504 -37.504 -37.504 -90.496v-384q0 -52.992 37.504 -90.496
q37.504 -37.504 90.496 -37.504h42.6667q17.664 0 30.1653 12.5013t12.5013 30.1653t-12.5013 30.1654q-12.5013 12.5013 -30.165 12.5013z" />
    <glyph glyph-name="corner-down-right" unicode="&#xe856;" 
d="M609.835 72.832q-11.977 -12.4007 -11.977 -29.641q0 -17.664 12.5013 -30.1653q12.5013 -12.5013 30.1653 -12.5013q17.2403 0 29.6411 11.977l213.333 213.333q12.4922 12.4961 12.4922 30.1653q0 17.6693 -12.4922 30.1653l-213.333 213.333
q-12.4008 11.977 -29.641 11.977q-17.664 0 -30.1653 -12.5013t-12.5013 -30.1653q0 -17.2403 11.977 -29.641l183.168 -183.168zM128 725.333v-298.667q0 -88.32 62.5067 -150.827q62.5067 -62.5067 150.827 -62.5066h512q17.664 0 30.1653 12.5013t12.5013 30.1653
q0 17.664 -12.5014 30.1653q-12.5013 12.5013 -30.1653 12.5013h-512q-52.992 0 -90.496 37.504t-37.504 90.496v298.667v0.00653076q0 17.664 -12.5013 30.1653t-30.1653 12.5013t-30.1653 -12.5014q-12.5013 -12.5013 -12.5017 -30.1713z" />
    <glyph glyph-name="corner-down-left" unicode="&#xe857;" 
d="M414.165 439.168q13.0256 12.5805 13.0256 30.6896q0 17.664 -12.5013 30.1653t-30.1653 12.5013q-18.1091 0 -30.6896 -13.0256l-213.333 -213.333q-12.4922 -12.496 -12.4922 -30.1653q0 -17.6693 12.4922 -30.1653l213.333 -213.333
q12.5806 -13.0256 30.6896 -13.0256q17.664 0 30.1653 12.5013t12.5013 30.1653q0 18.1091 -13.0257 30.6896l-183.168 183.168zM810.667 725.333v-298.667q0 -52.992 -37.504 -90.496t-90.496 -37.504h-512q-17.664 0 -30.1653 -12.5013t-12.5013 -30.1653
t12.5013 -30.1653q12.5013 -12.5013 30.1653 -12.5013h512v0q88.32 0 150.827 62.5067q62.5067 62.5067 62.5067 150.827v298.667q-0.00262451 17.6613 -12.504 30.1607q-12.5014 12.4995 -30.1627 12.4995t-30.1626 -12.4995q-12.5013 -12.4994 -12.5044 -30.1612z" />
    <glyph glyph-name="corner-left-down" unicode="&#xe858;" 
d="M200.832 286.165q-12.5806 13.0256 -30.6897 13.0256q-17.664 0 -30.1653 -12.5013t-12.5013 -30.1653q0 -18.1091 13.0256 -30.6897l213.333 -213.333q12.496 -12.4922 30.1653 -12.4922t30.1653 12.4922l213.333 213.333q11.977 12.4007 11.977 29.641
q0 17.664 -12.5013 30.1654q-12.5013 12.5013 -30.1653 12.5013q-17.2403 0 -29.6411 -11.977l-183.168 -183.168zM853.333 768h-298.667v0q-88.32 0 -150.827 -62.5067q-62.5067 -62.5067 -62.5067 -150.827v-512q0 -17.664 12.5013 -30.1653
q12.5013 -12.5013 30.1653 -12.5013t30.1653 12.5013q12.5013 12.5013 12.5013 30.1653v512q0 52.992 37.504 90.496q37.504 37.504 90.496 37.504h298.667q17.6613 0.00268555 30.1607 12.504q12.4995 12.5013 12.4995 30.1627q0 17.6613 -12.4995 30.1626
q-12.4994 12.5013 -30.1602 12.5044z" />
    <glyph glyph-name="corner-left-up" unicode="&#xe859;" 
d="M567.168 481.835q12.5805 -13.0256 30.6896 -13.0256q17.664 0 30.1653 12.5013t12.5013 30.1653q0 18.109 -13.0256 30.6897l-213.333 213.333q-12.4961 12.4922 -30.1653 12.4922q-17.6693 0 -30.1653 -12.4922l-213.333 -213.333q-11.977 -12.4008 -11.977 -29.641
q0 -17.664 12.5013 -30.1653t30.1653 -12.5013q17.2403 0 29.641 11.977l183.168 183.168zM853.333 85.3333h-298.667q-52.992 0 -90.496 37.504t-37.504 90.496v512q0 17.6639 -12.5013 30.1653q-12.5013 12.5013 -30.1653 12.5013t-30.1653 -12.5013t-12.5013 -30.1653
v-512q0 -88.32 62.5067 -150.827q62.5067 -62.5067 150.827 -62.5067h298.667q17.6613 0.00270382 30.1607 12.504t12.4995 30.1626q0 17.6613 -12.4995 30.1626q-12.4994 12.5013 -30.1612 12.5045z" />
    <glyph glyph-name="corner-up-left" unicode="&#xe85a;" 
d="M414.165 695.168q13.0256 12.5805 13.0256 30.6896q0 17.6639 -12.5013 30.1653t-30.1653 12.5014q-18.109 0 -30.6896 -13.0256l-213.333 -213.333q-12.4922 -12.496 -12.4922 -30.1653t12.4922 -30.1653l213.333 -213.333q12.5805 -13.0257 30.6896 -13.0257
q17.664 0 30.1654 12.5013q12.5013 12.5013 12.5013 30.1653q0 18.1091 -13.0257 30.6896l-183.168 183.168zM896 42.6667v298.667q0 88.32 -62.5067 150.827q-62.5067 62.507 -150.827 62.5067h-512q-17.664 0 -30.1653 -12.5013t-12.5013 -30.1653t12.5013 -30.1653
t30.1653 -12.5013h512q52.992 0 90.496 -37.504q37.504 -37.504 37.504 -90.496v-298.667q0.00268555 -17.6613 12.504 -30.1607t30.1627 -12.4994q17.6613 0 30.1626 12.4994q12.5013 12.4994 12.5044 30.1602z" />
    <glyph glyph-name="corner-up-right" unicode="&#xe85b;" 
d="M609.835 328.832q-11.977 -12.4007 -11.977 -29.641q0 -17.664 12.5013 -30.1653t30.1653 -12.5013q17.2403 0 29.6411 11.977l213.333 213.333q12.4922 12.4961 12.4922 30.1653q0 17.6694 -12.4922 30.1653l-213.333 213.333q-12.4007 11.977 -29.641 11.977
q-17.6641 0 -30.1653 -12.5013q-12.5013 -12.5013 -12.5013 -30.1653q0 -17.2404 11.977 -29.6411l183.168 -183.168zM213.333 42.6667v298.667q0 52.992 37.504 90.496q37.504 37.504 90.496 37.504h512q17.664 0 30.1653 12.5013t12.5013 30.1653
q0 17.664 -12.5013 30.1653t-30.1653 12.5013h-512q-88.32 0 -150.827 -62.5067t-62.5067 -150.827v-298.667q0.00271606 -17.6613 12.504 -30.1607t30.1626 -12.4994q17.6613 0 30.1626 12.4994q12.5013 12.4994 12.5045 30.1612z" />
    <glyph glyph-name="corner-right-down" unicode="&#xe85c;" 
d="M456.832 286.165q-12.5805 13.0256 -30.6896 13.0256q-17.664 0 -30.1653 -12.5013q-12.5014 -12.5013 -12.5014 -30.1653q0 -18.109 13.0257 -30.6897l213.333 -213.333q12.496 -12.4922 30.1653 -12.4922t30.1653 12.4922l213.333 213.333
q11.977 12.4007 11.977 29.641q0 17.664 -12.5013 30.1654q-12.5013 12.5013 -30.1653 12.5013q-17.2404 0 -29.6411 -11.977l-183.168 -183.168zM170.667 682.667h298.667q52.992 0 90.496 -37.504t37.504 -90.496v-512q0 -17.664 12.5013 -30.1653
q12.5013 -12.5013 30.1653 -12.5013q17.6641 0 30.1653 12.5013q12.5013 12.5013 12.5013 30.1654v512q0 88.32 -62.5067 150.827t-150.827 62.5067h-298.667h-0.00653076q-17.664 0 -30.1653 -12.5013t-12.5013 -30.1653q0 -17.6641 12.5013 -30.1653
q12.5013 -12.5013 30.1654 -12.5013z" />
    <glyph glyph-name="corner-right-up" unicode="&#xe85d;" 
d="M823.168 481.835q12.5806 -13.0256 30.6896 -13.0256q17.6639 0 30.1653 12.5013t12.5014 30.1653q0 18.109 -13.0256 30.6897l-213.333 213.333q-12.4961 12.4922 -30.1653 12.4922t-30.1653 -12.4922l-213.333 -213.333q-13.0256 -12.5805 -13.0256 -30.6896
q0 -17.664 12.5013 -30.1653t30.1653 -12.5013q18.1091 0 30.6896 13.0257l183.168 183.168zM170.667 0h298.667v2.84217e-14q88.32 0 150.827 62.5067t62.5067 150.827v512q0 17.664 -12.5013 30.1653t-30.1653 12.5013t-30.1653 -12.5013t-12.5013 -30.1653v-512
q0 -52.992 -37.504 -90.496t-90.496 -37.504h-298.667q-17.6613 -0.00270844 -30.1607 -12.504q-12.4994 -12.5013 -12.4994 -30.1626t12.4994 -30.1626q12.4994 -12.5013 30.1607 -12.504v2.00117e-05z" />
    <glyph glyph-name="cpu" unicode="&#xe85e;" 
d="M213.333 640.256v-512.512q0 -17.536 12.4373 -29.9733t29.9733 -12.4373h512.512q17.5405 0.0176239 29.9667 12.4439q12.4263 12.4263 12.444 29.9667v512.512q-0.0177002 17.5404 -12.444 29.9667q-12.4262 12.4263 -29.9667 12.444h-512.512
q-17.5404 -0.0177002 -29.9667 -12.444t-12.4439 -29.9667zM128 640.256q0.0176544 52.8684 37.4466 90.2974t90.2974 37.4466h512.512q52.8685 -0.0175781 90.2975 -37.4465q37.429 -37.429 37.4465 -90.2975v-512.512q-0.0176392 -52.8684 -37.4467 -90.2974
t-90.2974 -37.4466h-512.512q-52.8684 0.017648 -90.2974 37.4466q-37.429 37.429 -37.4466 90.2974zM426.667 298.667h170.667v170.667h-170.667v-170.667zM384 554.667h256q17.664 0 30.1653 -12.5013t12.5013 -30.1653v-256q0 -17.664 -12.5013 -30.1653
t-30.1653 -12.5013h-256v0q-17.664 0 -30.1653 12.5013t-12.5013 30.1653v256q0 17.664 12.5013 30.1653t30.1653 12.5013zM341.333 853.333q0 17.664 12.5013 30.1653t30.1653 12.5013t30.1653 -12.5013t12.5013 -30.1653v-128q0 -17.664 -12.5013 -30.1653
t-30.1653 -12.5013t-30.1653 12.5013t-12.5013 30.1653v128zM597.333 853.333q0 17.664 12.5013 30.1653t30.1653 12.5013t30.1653 -12.5013t12.5013 -30.1653v-128q0 -17.664 -12.5013 -30.1653t-30.1653 -12.5013t-30.1653 12.5013q-12.5013 12.5014 -12.5013 30.1653v128
zM341.333 42.6667q0 17.664 12.5013 30.1653q12.5013 12.5013 30.1653 12.5013t30.1653 -12.5013q12.5013 -12.5013 12.5013 -30.1653v-128q0 -17.664 -12.5013 -30.1653t-30.1653 -12.5013t-30.1653 12.5013q-12.5014 12.5013 -12.5014 30.1653zM597.333 42.6667
q0 17.664 12.5013 30.1653q12.5013 12.5013 30.1653 12.5013q17.6641 0 30.1653 -12.5013q12.5013 -12.5013 12.5013 -30.1653v-128q0 -17.664 -12.5013 -30.1653t-30.1653 -12.5013q-17.6639 0 -30.1653 12.5014q-12.5013 12.5013 -12.5013 30.1653v128zM853.333 469.333
q-17.6641 0 -30.1654 12.5013t-12.5013 30.1653t12.5013 30.1653t30.1653 12.5013h128q17.664 0 30.1653 -12.5013t12.5013 -30.1653t-12.5013 -30.1653q-12.5013 -12.5013 -30.1653 -12.5013zM853.333 256q-17.6613 0.00271606 -30.1607 12.5041t-12.4995 30.1626
t12.4995 30.1626q12.4995 12.5014 30.1606 12.5041h128q17.6614 -0.00268555 30.1608 -12.504t12.4994 -30.1626t-12.4994 -30.1627q-12.4995 -12.5013 -30.1608 -12.504zM42.6667 469.333q-17.664 0 -30.1653 12.5013q-12.5013 12.5013 -12.5013 30.1653t12.5013 30.1653
q12.5013 12.5013 30.1653 12.5013h128q17.664 0 30.1653 -12.5013t12.5013 -30.1653t-12.5013 -30.1653q-12.5013 -12.5013 -30.1653 -12.5013zM42.6667 256q-17.6613 0.00268555 -30.1607 12.504q-12.4994 12.5013 -12.4994 30.1626t12.4994 30.1626
q12.4994 12.5014 30.1607 12.5041h128q17.6613 -0.00265503 30.1607 -12.504q12.4994 -12.5014 12.4994 -30.1627t-12.4994 -30.1627q-12.4994 -12.5013 -30.1607 -12.504z" />
    <glyph glyph-name="credit-card" unicode="&#xe85f;" 
d="M0 640.256l-6.42112e-05 0.127991q0 52.8331 37.3915 90.2245q37.3915 37.3915 90.2245 37.3915h768.811q52.8154 -0.0705566 90.1944 -37.4996q37.3789 -37.429 37.3789 -90.2444v-512.512l0.00012207 -0.127983q0 -52.833 -37.3915 -90.2245t-90.2247 -37.3915
h-768.811q-52.8154 0.0705616 -90.1944 37.4996q-37.379 37.429 -37.3789 90.2444v512.512h8.1488e-05zM938.667 512v128.256v0.000183105q0 17.5051 -12.3889 29.9313q-12.3888 12.4263 -29.8939 12.4792h-768.811q-17.4875 -0.0175781 -29.8638 -12.4064
q-12.3764 -12.3888 -12.3764 -29.8762l0.000198364 -0.128052v-128.256zM938.667 426.667h-853.333v-298.923q0 -17.5334 12.4041 -29.9721q12.4041 -12.4386 29.8786 -12.4386h768.811h0.000183105q17.5051 0 29.8939 12.3888t12.3888 29.8939l-0.000183105 0.127998
v298.923h-0.043396z" />
    <glyph glyph-name="crosshair" unicode="&#xe860;" 
d="M469.333 2.34667v125.653q0 17.664 12.5013 30.1653q12.5013 12.5013 30.1653 12.5013t30.1653 -12.5013t12.5013 -30.1653v-125.653q126.195 14.1451 225.518 113.468q99.323 99.3231 113.468 225.519h-125.653q-17.6641 0 -30.1654 12.5013t-12.5013 30.1653
t12.5013 30.1653t30.1653 12.5013h125.653q-14.145 126.195 -113.468 225.518q-99.3231 99.3231 -225.518 113.468v-125.653q0 -17.664 -12.5013 -30.1653t-30.1653 -12.5013t-30.1653 12.5013q-12.5013 12.5013 -12.5013 30.1654v125.653
q-126.195 -14.1451 -225.519 -113.468q-99.3231 -99.3231 -113.468 -225.519h125.653q17.664 0 30.1653 -12.5013t12.5013 -30.1653t-12.5013 -30.1653t-30.1653 -12.5013h-125.653q14.1451 -126.195 113.468 -225.518q99.3231 -99.3231 225.518 -113.468zM512 -85.3333
q-95.4834 0 -182.397 37.1694t-149.756 100.011t-100.011 149.756q-37.1694 86.9139 -37.1694 182.397q0 95.4834 37.1694 182.397q37.1694 86.9138 100.011 149.755q62.8417 62.8417 149.756 100.011q86.9138 37.1694 182.397 37.1694q95.4833 0 182.397 -37.1694
t149.756 -100.011q62.8417 -62.8417 100.011 -149.755t37.1694 -182.397q0 -95.4833 -37.1694 -182.397t-100.011 -149.756q-62.8417 -62.8417 -149.755 -100.011q-86.9138 -37.1694 -182.398 -37.1694z" />
    <glyph glyph-name="disc" unicode="&#xe861;" 
d="M512 -85.3333q-95.4834 0 -182.397 37.1694t-149.756 100.011t-100.011 149.756q-37.1694 86.9139 -37.1694 182.397q0 95.4834 37.1694 182.397q37.1694 86.9138 100.011 149.755q62.8417 62.8417 149.756 100.011q86.9138 37.1694 182.397 37.1694
q95.4833 0 182.397 -37.1694t149.756 -100.011q62.8417 -62.8417 100.011 -149.755t37.1694 -182.397q0 -95.4833 -37.1694 -182.397t-100.011 -149.756q-62.8417 -62.8417 -149.755 -100.011q-86.9138 -37.1694 -182.398 -37.1694zM512 -2.87646e-06
q104.256 0 192.72 51.408q88.4642 51.408 139.872 139.872q51.408 88.4641 51.408 192.72q0 159 -112.5 271.5t-271.5 112.5t-271.5 -112.5t-112.5 -271.5q0 -104.256 51.4079 -192.72q51.4079 -88.4642 139.872 -139.872t192.72 -51.408zM512 213.333
q-70.656 0 -120.661 50.0053q-50.0053 50.0053 -50.0053 120.661t50.0053 120.661q50.0053 50.0053 120.661 50.0053q70.6561 0 120.661 -50.0053t50.0053 -120.661t-50.0053 -120.661q-50.0053 -50.0053 -120.661 -50.0053zM512 298.667q35.328 0 60.3307 25.0027
q25.0026 25.0026 25.0026 60.3307q0 35.328 -25.0026 60.3307q-25.0027 25.0026 -60.3307 25.0026t-60.3307 -25.0027t-25.0027 -60.3307t25.0027 -60.3307t60.3307 -25.0026z" />
    <glyph glyph-name="delete" unicode="&#xe862;" 
d="M896 768q53 0 90.5 -37.5t37.5 -90.5v-512q0 -53 -37.5 -90.5t-90.5 -37.5h-554.667l-0.0365601 -1.56589e-05q-19.3438 0 -32.0914 14.5493l-298.667 341.333q-10.5752 12.0699 -10.5752 28.1173q0 16.0474 10.5752 28.1173l298.667 341.333
q12.7476 14.5493 32.0914 14.5493h0.0365601zM896 85.3333q17.664 0 30.1653 12.5013t12.5013 30.1653v512q0 17.664 -12.5013 30.1653t-30.1653 12.5013h-535.296l-261.333 -298.667l261.333 -298.667zM737.835 542.165l-256 -256q-11.977 -12.4007 -11.977 -29.641
q0 -17.664 12.5013 -30.1653t30.1653 -12.5013q17.2404 0 29.6411 11.977l256 256q13.0256 12.5806 13.0256 30.6896q0 17.6641 -12.5013 30.1654t-30.1653 12.5013q-18.109 0 -30.6898 -13.0257zM481.835 481.835l256 -256q12.4008 -11.977 29.641 -11.977
q17.664 0 30.1653 12.5013t12.5013 30.1653q0 17.2403 -11.977 29.641l-256 256q-12.4008 11.977 -29.641 11.977q-17.664 0 -30.1653 -12.5013t-12.5013 -30.1653q0 -17.2403 11.9771 -29.641z" />
    <glyph glyph-name="download-cloud" unicode="&#xe863;" 
d="M512.469 17.664l-140.501 140.501q-12.5805 13.0257 -30.6897 13.0257q-17.664 0 -30.1653 -12.5013t-12.5013 -30.1653q0 -18.1091 13.0257 -30.6897l170.667 -170.667q12.496 -12.4922 30.1653 -12.4922t30.1653 12.4922l170.667 170.667q11.977 12.4007 11.977 29.641
q0 17.664 -12.5013 30.1653q-12.5013 12.5013 -30.1653 12.5013q-17.2402 0 -29.6411 -11.977zM469.802 341.333v-384q0.00268555 -17.6613 12.504 -30.1607t30.1627 -12.4994q17.6613 0 30.1626 12.4994q12.5013 12.4994 12.504 30.1607v384
q-0.00268555 17.6613 -12.504 30.1607q-12.5013 12.4994 -30.1627 12.4994q-17.6613 0 -30.1626 -12.4994t-12.504 -30.1607zM427.989 765.995q-21.8957 2.52179 -43.9359 2.52179q-104.256 0 -192.72 -51.408q-88.4641 -51.4079 -139.872 -139.872
q-51.408 -88.4642 -51.408 -192.72q0 -60.2512 28.2623 -134.823q28.2623 -74.5718 68.1962 -119.688q12.7385 -14.3908 31.9573 -14.3908q17.6691 0 30.1739 12.5049q12.5049 12.5049 12.5049 30.1739q0 16.1758 -10.7215 28.288q-31.099 35.101 -53.1087 93.1328
q-22.0097 58.0318 -22.0097 104.928q0 123.648 87.5093 211.157q87.5093 87.5093 211.157 87.5093q95.997 0 180.776 -65.8201q84.7789 -65.82 108.572 -158.822q3.41058 -13.2656 15.5182 -22.6541q12.1075 -9.38852 25.8046 -9.38852h0.0211792h53.8027
l0.176208 9.15527e-05q70.6561 0 120.661 -50.0053q50.0053 -50.0053 50.0053 -120.661q0 -36.6912 -21.2414 -77.5956q-21.2413 -40.9044 -51.2548 -62.0098q-17.5803 -12.7787 -17.5803 -34.5126q0 -17.664 12.5013 -30.1653t30.1653 -12.5013q13.1247 0 23.9803 7.3766
q45.0453 31.6563 76.9251 93.0254q31.8799 61.3691 31.8799 116.425q0 105.984 -75.0079 180.992q-75.008 75.008 -180.992 75.008l-0.218323 -0.00012207h-22.1013q-33.0063 93.7808 -126.266 168.201t-192.027 85.7935z" />
    <glyph glyph-name="download" unicode="&#xe864;" 
d="M85.3333 170.667v-128q0 -52.992 37.504 -90.496q37.504 -37.504 90.496 -37.504h597.333q52.992 0 90.496 37.504q37.504 37.504 37.504 90.496v128q0 17.664 -12.5013 30.1653t-30.1653 12.5013t-30.1653 -12.5014t-12.5013 -30.1653v-128q0 -17.664 -12.5013 -30.1653
q-12.5013 -12.5013 -30.1653 -12.5013h-597.333q-17.664 0 -30.1653 12.5013q-12.5013 12.5013 -12.5013 30.1653v128q0 17.664 -12.5013 30.1653t-30.1653 12.5013t-30.1653 -12.5013t-12.5018 -30.1652zM512 273.664l-140.501 140.501q-12.5805 13.0256 -30.6896 13.0256
q-17.664 0 -30.1653 -12.5013t-12.5013 -30.1653q0 -18.1091 13.0257 -30.6896l170.667 -170.667q12.496 -12.4922 30.1653 -12.4922q17.6694 0 30.1653 12.4922l170.667 170.667q11.977 12.4007 11.977 29.641q0 17.664 -12.5013 30.1653t-30.1653 12.5013
q-17.2404 0 -29.6411 -11.977zM469.333 810.667v-597.333q0 -17.664 12.5013 -30.1653t30.1653 -12.5013t30.1653 12.5013t12.5013 30.1653v597.333q0 17.664 -12.5013 30.1653t-30.1653 12.5013t-30.1653 -12.5013q-12.5013 -12.5013 -12.5013 -30.1653z" />
    <glyph glyph-name="droplet" unicode="&#xe865;" 
d="M301.099 501.035q-36.2357 -35.4397 -61.8808 -96.3928q-25.6451 -60.9531 -25.6451 -111.638q0 -24.255 6.64307 -57.2494t16.0295 -55.3595q34.6924 -82.4743 110.024 -132.074q75.3315 -49.6002 165.944 -49.6002q90.6243 0 165.952 49.5895
q75.3279 49.5895 110.016 132.085q9.38635 22.3649 16.0295 55.3594q6.64307 32.9946 6.64307 57.2495q0 50.6853 -25.6451 111.638t-61.8808 96.3928l-211.328 208.128zM542.165 798.336l241.493 -237.867q46.5703 -45.5641 79.5297 -123.922
q32.9595 -78.358 32.9595 -143.511q0 -31.1918 -8.54419 -73.6217t-20.6169 -71.1905q-44.5456 -106.02 -141.406 -169.789t-213.368 -63.7688q-116.495 0 -213.365 63.7615t-141.408 169.796q-12.0726 28.7604 -20.6167 71.1902q-8.5441 42.4298 -8.54414 73.6213
q0 65.1384 32.9467 143.484t79.4995 123.907l241.067 237.909q12.5713 12.3395 30.1867 12.3395q17.6153 0 30.1868 -12.3385z" />
    <glyph glyph-name="edit-" unicode="&#xe866;" 
d="M170.667 195.669v-153.003h153.003l512 512l-153.003 153.003zM712.832 798.165l213.333 -213.333q12.4922 -12.496 12.4922 -30.1653q0 -17.6692 -12.4922 -30.1653l-554.667 -554.667q-12.4938 -12.4975 -30.1653 -12.5013h-213.333q-17.664 0 -30.1653 12.5013
t-12.5013 30.1653v213.333q0.00376892 17.6716 12.5013 30.1653l554.667 554.667q12.496 12.4922 30.1653 12.4922t30.1653 -12.4922z" />
    <glyph glyph-name="edit" unicode="&#xe867;" 
d="M810.667 270.507v-227.84q0 -17.664 -12.5014 -30.1653q-12.5013 -12.5013 -30.1653 -12.5013h-597.333q-17.664 0 -30.1653 12.5013q-12.5013 12.5013 -12.5013 30.1653v597.333q0 17.664 12.5013 30.1653t30.1653 12.5013h227.84h0.00653076q17.664 0 30.1653 12.5013
t12.5013 30.1653q0 17.6639 -12.5013 30.1653t-30.1653 12.5013h-0.00653076h-227.84q-52.992 0 -90.496 -37.504t-37.504 -90.496v-597.333q0 -52.992 37.504 -90.496q37.504 -37.504 90.496 -37.504h597.333q52.9919 0 90.496 37.504q37.504 37.504 37.504 90.496v227.84
q-0.00262451 17.6613 -12.504 30.1607q-12.5013 12.4994 -30.1627 12.4994q-17.6613 0 -30.1626 -12.4994t-12.504 -30.1604zM384 366.336v-110.336h110.336l384 384l-110.336 110.336zM798.165 840.832l170.667 -170.667q12.4922 -12.4961 12.4922 -30.1653
t-12.4922 -30.1653l-426.667 -426.667q-12.4938 -12.4975 -30.1653 -12.5013h-170.667q-17.664 0 -30.1653 12.5013t-12.5013 30.1653v170.667q0.00372314 17.6715 12.5013 30.1653l426.667 426.667q12.496 12.4922 30.1653 12.4922t30.1653 -12.4922z" />
    <glyph glyph-name="edit-1" unicode="&#xe868;" 
d="M170.667 323.669v-110.336h110.336l426.667 426.667l-110.336 110.336zM627.499 840.832l170.667 -170.667q12.4922 -12.496 12.4922 -30.1653q0 -17.6692 -12.4922 -30.1653l-469.333 -469.333q-12.4938 -12.4975 -30.1653 -12.5013h-170.667
q-17.664 0 -30.1653 12.5013t-12.5013 30.1653v170.667q0.00376892 17.6715 12.5013 30.1653l469.333 469.333q12.496 12.4922 30.1653 12.4922t30.1653 -12.4922zM128 -85.3333h768q17.6613 0.00270081 30.1608 12.504q12.4994 12.5013 12.4994 30.1626t-12.4994 30.1626
q-12.4995 12.5013 -30.1608 12.504h-768q-17.6613 -0.00270382 -30.1607 -12.504q-12.4994 -12.5013 -12.4994 -30.1626q0 -17.6613 12.4994 -30.1626q12.4994 -12.5013 30.1607 -12.504z" />
    <glyph glyph-name="external-link" unicode="&#xe869;" 
d="M725.333 341.333v-256q0 -17.664 -12.5014 -30.1653q-12.5013 -12.5013 -30.1653 -12.5013h-469.333q-17.664 0 -30.1653 12.5013q-12.5013 12.5013 -12.5013 30.1653v469.333q0 17.6639 12.5013 30.1653q12.5013 12.5013 30.1653 12.5013h256q17.664 0 30.1653 12.5013
t12.5013 30.1653t-12.5013 30.1653t-30.1653 12.5013h-256q-52.992 0 -90.496 -37.504t-37.504 -90.496v-469.333q0 -52.992 37.504 -90.496q37.504 -37.504 90.496 -37.504h469.333q52.992 0 90.496 37.504q37.504 37.504 37.504 90.496v256q0 17.664 -12.5013 30.1653
t-30.1653 12.5013q-17.6639 0 -30.1653 -12.5013t-12.5015 -30.165zM853.333 725.333v-213.333q0 -17.664 12.5014 -30.1653q12.5013 -12.5013 30.1653 -12.5013t30.1653 12.5013t12.5013 30.1653v256q0 17.664 -12.5013 30.1653t-30.1653 12.5013h-256
q-17.664 0 -30.1653 -12.5013t-12.5013 -30.1653t12.5013 -30.1653t30.1653 -12.5013zM456.832 268.501l469.333 469.333q13.0256 12.5806 13.0256 30.6896q0 17.664 -12.5013 30.1653t-30.1653 12.5013q-18.109 0 -30.6897 -13.0256l-469.333 -469.333
q-11.977 -12.4007 -11.977 -29.641q0 -17.664 12.5013 -30.1653t30.1653 -12.5013q17.2403 0 29.6411 11.9771z" />
    <glyph glyph-name="eye" unicode="&#xe86a;" 
d="M109.844 353.835q39.27 -60.7832 86.6133 -111.36q147.566 -157.141 315.563 -157.141q168.177 0 315.52 157.184q25.0598 26.8424 55.8755 68.2966t49.2978 73.1861q-18.4738 31.7304 -49.2772 73.1847q-30.8033 41.4543 -55.8535 68.298
q-147.411 157.184 -315.563 157.184q-168.177 0 -315.52 -157.184q-25.0596 -26.8419 -55.8754 -68.2965q-30.8158 -41.4546 -49.2979 -73.1862q8.70657 -15.0638 18.4747 -30.1653zM4.54272 403.072q11.5288 23.1399 33.6213 57.4293q42.4885 65.9629 96.0427 123.307
q172.534 184.192 377.813 184.192q205.19 0 377.813 -184.149q53.5351 -57.367 96 -123.349q21.9058 -33.9106 33.7067 -57.4293q4.5 -9.00528 4.5 -19.072q0 -10.0668 -4.49994 -19.072q-11.8008 -23.5176 -33.7067 -57.4293q-42.4679 -65.9598 -96 -123.307
q-172.534 -184.192 -377.813 -184.192q-205.19 0 -377.813 184.149q-53.535 57.3669 -96 123.349q-18.3306 27.8476 -33.7067 57.4293q-4.49988 9.00522 -4.49988 19.072q0 10.0669 4.49988 19.072zM512.02 213.333q-70.656 0 -120.661 50.0053
q-50.0053 50.0053 -50.0053 120.661t50.0053 120.661q50.0053 50.0053 120.661 50.0053q70.656 0 120.661 -50.0053q50.0054 -50.0053 50.0054 -120.661t-50.0054 -120.661q-50.0053 -50.0054 -120.661 -50.0053zM512.02 298.667q35.3279 0 60.3306 25.0027
q25.0027 25.0027 25.0027 60.3307t-25.0027 60.3306q-25.0027 25.0027 -60.3306 25.0027q-35.328 0 -60.3307 -25.0027t-25.0027 -60.3307t25.0027 -60.3307t60.3307 -25.0026z" />
    <glyph glyph-name="feather" unicode="&#xe86b;" 
d="M230.997 42.6667l-115.499 -115.499q-12.5806 -13.0256 -30.6896 -13.0256q-17.664 0 -30.1653 12.5013t-12.5013 30.1653q0 18.1091 13.0256 30.6896l115.499 115.499v345.003q0.00375366 17.6716 12.5013 30.1653l288 288q36.2348 36.2385 98.1476 61.8854
q61.9128 25.6469 113.159 25.6469q123.711 0 211.264 -87.5536t87.5536 -211.264q0 -51.2389 -25.6407 -113.146t-61.8703 -98.1398l-287.573 -288.427q-12.4976 -12.5013 -30.1744 -12.5013l-0.0335693 1.52588e-05zM486.997 298.667l241.365 -0.0853271l104.96 105.301
q27.076 26.0758 46.2385 71.1344q19.1625 45.0587 19.1625 82.6494q0 88.3907 -62.5566 150.947t-150.947 62.5566q-37.5687 0 -82.6088 -19.1434t-71.1121 -46.1924l-275.499 -275.499v-242.005l396.501 396.501q12.4008 11.9771 29.6411 11.9771
q17.6641 0 30.1653 -12.5013t12.5013 -30.1653q0 -17.2404 -11.977 -29.6411zM643.371 213.333h-241.707l-85.3333 -85.3333h241.92z" />
    <glyph glyph-name="facebook" unicode="&#xe86c;" 
d="M384 597.333q0 105.984 75.008 180.992t180.992 75.008h128q17.664 0 30.1653 -12.5013t12.5013 -30.1653v-170.667q0 -17.664 -12.5013 -30.1653t-30.1653 -12.5013h-128v-85.3333h128q17.6635 -0.000488281 30.1645 -12.5018t12.501 -30.1649
q0 -5.26285 -1.27887 -10.368l-42.6667 -170.667q-3.34967 -13.3712 -15.476 -22.8347q-12.1262 -9.4635 -25.9107 -9.46387h-85.3333v-298.667q0 -17.664 -12.5013 -30.1653t-30.1653 -12.5013h-170.667v0q-17.664 0 -30.1653 12.5013q-12.5013 12.5013 -12.5013 30.1653
v298.667h-85.3333q-17.664 0 -30.1653 12.5013q-12.5013 12.5013 -12.5013 30.1653v170.667q0 17.664 12.5013 30.1653q12.5013 12.5013 30.1653 12.5013h85.3333zM725.333 768h-85.3333q-70.6559 0 -120.661 -50.0054q-50.0053 -50.0053 -50.0053 -120.661v-128
q0 -17.664 -12.5013 -30.1653t-30.1653 -12.5013h-85.3333v-85.3333h85.3333q17.664 0 30.1653 -12.5013t12.5013 -30.1653v-298.667h85.3333v298.667q0 17.664 12.5014 30.1653q12.5013 12.5013 30.1653 12.5013h94.72l21.3333 85.3333h-116.053
q-17.664 0 -30.1653 12.5013t-12.5013 30.1653v128q0 35.3279 25.0027 60.3306t60.3306 25.0027h85.3333z" />
    <glyph glyph-name="file-minus" unicode="&#xe86d;" 
d="M554.667 768h-298.667q-17.664 0 -30.1653 -12.5013t-12.5013 -30.1653v-682.667q0 -17.664 12.5013 -30.1653q12.5013 -12.5013 30.1653 -12.5013h512q17.664 0 30.1653 12.5013q12.5013 12.5013 12.5013 30.1653v469.333h-213.333q-17.664 0 -30.1653 12.5013
q-12.5013 12.5013 -12.5013 30.1653v213.334zM640 707.669v-110.336h110.336zM597.333 853.333q17.6716 -0.00378418 30.1653 -12.5013l256 -256q12.4976 -12.4937 12.5013 -30.1653v-512q0 -52.992 -37.504 -90.496q-37.504 -37.504 -90.496 -37.504h-512
q-52.992 0 -90.496 37.504q-37.504 37.504 -37.504 90.496v682.667q0 52.992 37.504 90.496q37.504 37.504 90.496 37.504zM384 213.333q-17.664 0 -30.1653 12.5013t-12.5013 30.1653q0 17.664 12.5013 30.1653t30.1653 12.5013h256q17.664 0 30.1653 -12.5013
t12.5013 -30.1654q0 -17.664 -12.5013 -30.1653t-30.1653 -12.5013z" />
    <glyph glyph-name="eye-off" unicode="&#xe86e;" 
d="M284.838 603.145q16.7695 12.8038 16.7695 33.9026q0 17.6592 -12.4978 30.157q-12.4979 12.4979 -30.157 12.4979q-14.4223 0 -25.8854 -8.75226q-59.0355 -45.0934 -125.671 -123.337q-66.6354 -78.243 -101.754 -143.705q-5.06166 -9.44012 -5.06166 -20.1516
q0 -10.0732 4.50728 -19.0816q11.5227 -23.1277 33.6041 -57.3999q43.5466 -67.3366 95.9934 -123.243q172.377 -184.098 377.577 -184.098q64.3635 0.98095 146.155 29.282q81.7917 28.301 132.998 67.3085q17.724 12.7638 17.724 34.6054q0 17.6549 -12.4949 30.1499
t-30.1498 12.4949q-15.0488 0 -26.7647 -9.44495q-41.8466 -31.8924 -108.694 -55.0705q-66.8478 -23.1781 -119.455 -24.0356q-167.383 0 -314.719 157.103q-25.0046 26.8087 -55.7546 68.2044q-30.75 41.3957 -49.1942 73.0778q30.8344 53.4417 87.3615 117.766
q56.5271 64.3239 105.563 101.77zM856.619 275.164q-9.85004 -11.8503 -9.85004 -27.2596q0 -17.6549 12.4949 -30.1499t30.1498 -12.4949q19.6823 0 32.4518 14.9779q56.0593 66.6237 97.1022 143.414q5.01758 9.40735 5.01758 20.0692q0 10.0715 -4.50586 19.0788
q-11.5222 23.1276 -33.6041 57.3999q-42.467 65.9294 -95.9934 123.243q-172.446 184.098 -377.62 184.098l-0.999939 0.00115967q-49.7935 0 -98.2771 -11.3447q-13.6354 -3.19196 -23.2856 -15.3619q-9.65024 -12.17 -9.65024 -26.1741q0 -17.6607 12.4991 -30.1598
t30.1598 -12.4991q4.92651 0 9.72299 1.1228q38.9618 9.12689 78.978 9.12689l0.767731 -0.000854492q168.176 0 315.444 -157.103q25.0247 -26.8141 55.8001 -68.2226t49.234 -73.1023q-33.1714 -57.7209 -76.0356 -108.659zM571.454 322.414
q-10.4902 -11.3976 -28.8774 -19.464t-33.8776 -8.06638q-35.3099 0 -60.2997 24.9898t-24.9898 60.2997q0 15.4903 8.06644 33.8775q8.06641 18.3872 19.464 28.8775q13.5812 12.6536 13.5812 31.216q0 17.6633 -12.5008 30.1642q-12.5008 12.5009 -30.1642 12.5008
q-16.7953 0 -29.0838 -11.449q-22.2953 -20.9219 -38.0744 -57.3676t-15.7791 -67.0204q0 -70.6198 49.9797 -120.599q49.9797 -49.9797 120.599 -49.9797q30.5747 0 67.0204 15.7791t57.3676 38.0744q11.449 12.2884 11.449 29.0837q0 17.6633 -12.5009 30.1642
q-12.5009 12.5009 -30.1642 12.5009q-18.5624 0 -31.2154 -13.5818zM13.0202 822.68l938.185 -938.185q12.3944 -11.9709 29.6259 -11.9709q17.6549 0 30.1498 12.4949t12.4949 30.1499q0 17.2314 -11.9709 29.6259l-938.185 938.185q-12.5741 13.0188 -30.6737 13.0188
q-17.655 0 -30.1499 -12.4949t-12.4949 -30.1499q0 -18.0996 13.0188 -30.6738z" />
    <glyph glyph-name="fast-forward" unicode="&#xe86f;" 
d="M580.864 51.6267q-11.5563 -8.98963 -26.1973 -8.98963q-17.664 0 -30.1653 12.5013t-12.5013 30.1653v0.0296326v597.333v0.0296021q0 17.664 12.5013 30.1653t30.1653 12.5013q14.6411 0 26.1973 -8.98962l384 -298.667q16.5074 -12.8111 16.5074 -33.7067
t-16.5074 -33.7067zM869.12 384l-271.787 211.413v-422.827l271.829 211.413zM111.531 51.6267q-11.5563 -8.98962 -26.1973 -8.98962q-17.664 0 -30.1653 12.5013q-12.5013 12.5013 -12.5013 30.1653l1.14441e-05 0.0296249v597.333l-1.14441e-05 0.0296021
q0 17.6639 12.5013 30.1653q12.5013 12.5014 30.1653 12.5014q14.6411 0 26.1973 -8.98962l384 -298.667q16.5074 -12.8111 16.5074 -33.7067q0 -20.8955 -16.5074 -33.7067zM399.787 384l-271.787 211.413v-422.827l271.829 211.413z" />
    <glyph glyph-name="file-text" unicode="&#xe870;" 
d="M554.667 768h-298.667q-17.664 0 -30.1653 -12.5013t-12.5013 -30.1653v-682.667q0 -17.664 12.5013 -30.1653q12.5013 -12.5013 30.1653 -12.5013h512q17.664 0 30.1653 12.5013q12.5013 12.5013 12.5013 30.1653v469.333h-213.333q-17.664 0 -30.1653 12.5013
q-12.5013 12.5013 -12.5013 30.1653v213.334zM640 707.669v-110.336h110.336zM597.333 853.333q17.6716 -0.00378418 30.1653 -12.5013l256 -256q12.4976 -12.4937 12.5013 -30.1653v-512q0 -52.992 -37.504 -90.496q-37.504 -37.504 -90.496 -37.504h-512
q-52.992 0 -90.496 37.504q-37.504 37.504 -37.504 90.496v682.667q0 52.992 37.504 90.496q37.504 37.504 90.496 37.504zM682.667 384q17.6613 -0.00268555 30.1607 -12.5041q12.4995 -12.5013 12.4995 -30.1626t-12.4994 -30.1626q-12.4995 -12.5013 -30.1608 -12.5041
h-341.333q-17.6613 0.00271606 -30.1607 12.504q-12.4994 12.5013 -12.4994 30.1626t12.4995 30.1626q12.4994 12.5014 30.1607 12.5041zM682.667 213.333q17.6613 -0.00270081 30.1607 -12.504q12.4995 -12.5014 12.4995 -30.1626t-12.4994 -30.1626
q-12.4995 -12.5013 -30.1608 -12.5041h-341.333q-17.6613 0.00270844 -30.1607 12.504q-12.4994 12.5013 -12.4994 30.1626t12.4994 30.1626t30.1607 12.504zM426.667 554.667q17.664 0 30.1653 -12.5013t12.5013 -30.1653t-12.5013 -30.1654
q-12.5013 -12.5013 -30.1653 -12.5013h-85.3333q-17.664 0 -30.1653 12.5013t-12.5013 30.1653q0 17.664 12.5013 30.1653t30.1653 12.5013z" />
    <glyph glyph-name="film" unicode="&#xe871;" 
d="M42.6667 717.739q0.0352669 56.101 39.7645 95.8301q39.7292 39.7292 95.8302 39.7646h667.477q56.101 -0.0354004 95.8301 -39.7646q39.7292 -39.7292 39.7646 -95.8301v-667.477q-0.0354004 -56.1009 -39.7646 -95.8301q-39.7292 -39.7292 -95.8301 -39.7645h-667.477
q-56.1009 0.0352707 -95.8302 39.7645q-39.7292 39.7292 -39.7645 95.8302v667.477zM341.333 768v-341.333h341.333v341.333h-341.333zM341.333 0h341.333v341.333h-341.333v-341.333v-7.8125e-06zM896 426.667v128h-128v-128h128zM896 341.333h-128v-128h128v128z
M128 341.333v-128h128v128h-128zM128 426.667h128v128h-128v-128zM768 768v-128h128v77.7386q-0.0351562 20.7731 -14.7617 35.4996q-14.7266 14.7265 -35.4996 14.7617zM896 128h-128v-128h77.7386q20.7731 0.035171 35.4996 14.7617q14.7266 14.7266 14.7617 35.4996z
M256 768h-77.7387q-20.773 -0.0351562 -35.4996 -14.7617t-14.7617 -35.4996v-77.7386h128v128zM256 0v128h-128v-77.7387q0 -20.7434 14.7503 -35.5023q14.7504 -14.759 35.511 -14.759z" />
    <glyph glyph-name="file" unicode="&#xe872;" 
d="M554.667 853.333q17.6717 -0.00372314 30.1653 -12.5013l298.667 -298.667q12.4975 -12.4938 12.5013 -30.1653v-469.333q0 -52.992 -37.504 -90.496q-37.504 -37.504 -90.496 -37.504h-512q-52.992 0 -90.496 37.504q-37.504 37.504 -37.504 90.496v682.667
q0 52.992 37.504 90.496q37.504 37.504 90.496 37.504zM512 512v256h-256q-17.664 0 -30.1653 -12.5013t-12.5013 -30.1653v-682.667q0 -17.664 12.5013 -30.1653q12.5013 -12.5013 30.1653 -12.5013h512q17.664 0 30.1653 12.5013q12.5013 12.5013 12.5013 30.1653v426.667
h-256q-17.6641 0 -30.1653 12.5013q-12.5013 12.5013 -12.5013 30.1653zM597.333 707.669v-153.003h153.003z" />
    <glyph glyph-name="file-plus" unicode="&#xe873;" 
d="M554.667 768h-298.667q-17.664 0 -30.1653 -12.5013t-12.5013 -30.1653v-682.667q0 -17.664 12.5013 -30.1653q12.5013 -12.5013 30.1653 -12.5013h512q17.664 0 30.1653 12.5013q12.5013 12.5013 12.5013 30.1653v469.333h-213.333q-17.664 0 -30.1653 12.5013
q-12.5013 12.5013 -12.5013 30.1653v213.334zM640 707.669v-110.336h110.336zM597.333 853.333q17.6716 -0.00378418 30.1653 -12.5013l256 -256q12.4976 -12.4937 12.5013 -30.1653v-512q0 -52.992 -37.504 -90.496q-37.504 -37.504 -90.496 -37.504h-512
q-52.992 0 -90.496 37.504q-37.504 37.504 -37.504 90.496v682.667q0 52.992 37.504 90.496q37.504 37.504 90.496 37.504zM469.333 213.333h-85.3333q-17.664 0 -30.1653 12.5013t-12.5013 30.1653q0 17.664 12.5013 30.1654q12.5013 12.5013 30.1653 12.5013h85.3333
v85.3333q0 17.664 12.5013 30.1653t30.1653 12.5013t30.1653 -12.5013t12.5013 -30.1653v-85.3333h85.3333q17.664 0 30.1653 -12.5013t12.5013 -30.1654q0 -17.664 -12.5013 -30.1653t-30.1653 -12.5013h-85.3333v-85.3333q0 -17.664 -12.5013 -30.1653t-30.1653 -12.5013
t-30.1653 12.5013q-12.5013 12.5013 -12.5013 30.1653z" />
    <glyph glyph-name="folder" unicode="&#xe874;" 
d="M170.667 725.333q-17.664 0 -30.1653 -12.5014q-12.5013 -12.5013 -12.5013 -30.1653v-597.333q0 -17.664 12.5013 -30.1653q12.5013 -12.5013 30.1653 -12.5013h682.667q17.664 0 30.1653 12.5013q12.5013 12.5013 12.5013 30.1653v469.333q0 17.664 -12.5013 30.1653
t-30.1653 12.5013h-384h-0.00637817q-9.4494 0 -19.8487 5.56311q-10.3992 5.56311 -15.6436 13.4236l-72.6613 109.013zM853.333 682.667q52.992 0 90.496 -37.504q37.504 -37.504 37.504 -90.496v-469.333q0 -52.992 -37.504 -90.496q-37.504 -37.504 -90.496 -37.504
h-682.667q-52.992 0 -90.496 37.504q-37.504 37.504 -37.504 90.496v597.333q0 52.992 37.504 90.496q37.504 37.504 90.496 37.504h213.333h0.00637817q9.44937 0 19.8486 -5.56311t15.6437 -13.4236l72.6613 -109.013z" />
    <glyph glyph-name="filter" unicode="&#xe875;" 
d="M384 348.757l-331.264 391.68q-10.0976 11.9318 -10.0976 27.5627q0 17.664 12.5013 30.1653q12.5013 12.5013 30.1653 12.5013h0.0282974h853.333h0.0282593q17.664 0 30.1653 -12.5013t12.5013 -30.1653q0 -15.6309 -10.0976 -27.5626l-331.264 -391.68v-348.757
q-0.00939941 -17.6546 -12.5107 -30.1492q-12.5013 -12.4946 -30.1559 -12.4946q-10.0668 0 -19.072 4.49989l-170.667 85.3333q-9.76233 4.87826 -16.6756 16.0545q-6.91327 11.1762 -6.91907 22.0895zM177.28 725.333l281.984 -333.397q10.0693 -11.923 10.0693 -27.5292
v-0.0334167v-252.672l85.3333 -42.6667v295.339v0.0334167q0 15.6062 10.0693 27.5292l281.984 333.397z" />
    <glyph glyph-name="flag" unicode="&#xe876;" 
d="M128 -42.6667v810.667q0.00376892 17.6716 12.5013 30.1653q16.8922 16.8922 51.6267 30.7627q60.9459 24.4053 149.205 24.4053q43.992 0 82.2812 -9.67096t104.215 -36.0677q57.8734 -23.1229 89.4225 -31.3588q31.5491 -8.23584 65.4149 -8.23584
q71.6771 0 117.504 18.2614q18.4719 7.4212 22.9973 11.9467q20.16 20.126 46.496 9.20001t26.336 -39.408v-512q-0.00372314 -17.6716 -12.5013 -30.1653q-16.8921 -16.8922 -51.6266 -30.7627q-60.8785 -24.4053 -149.205 -24.4053q-43.9921 0 -82.2811 9.67091
q-38.2889 9.6709 -104.215 36.0677q-57.8736 23.1231 -89.4226 31.3589q-31.549 8.23578 -65.4148 8.23578q-71.6771 0 -117.504 -18.2613q-5.32376 -2.13168 -10.496 -4.608v-275.797q-0.00270081 -17.6613 -12.504 -30.1607q-12.5013 -12.4994 -30.1626 -12.4994
t-30.1626 12.4994q-12.5013 12.4994 -12.5041 30.1607zM341.333 341.333q43.9922 0 82.2812 -9.67093t104.215 -36.0677q57.8736 -23.1232 89.4225 -31.3589t65.4148 -8.23575q71.677 0 117.504 18.2613q6.08002 2.496 10.496 4.608v420.693q-54.7618 -16.896 -128 -16.896
q-43.992 0 -82.2812 9.6709t-104.215 36.0677q-57.8734 23.1229 -89.4225 31.3588q-31.5491 8.2359 -65.4149 8.2359q-71.6772 0 -117.504 -18.2614q-5.32307 -2.13135 -10.496 -4.60797v-420.693q54.7619 16.896 128 16.896z" />
    <glyph glyph-name="globe" unicode="&#xe877;" 
d="M512 -85.3333q-95.4834 0 -182.397 37.1694t-149.756 100.011t-100.011 149.756q-37.1694 86.9139 -37.1694 182.397q0 95.4834 37.1694 182.397q37.1694 86.9138 100.011 149.755q62.8417 62.8417 149.756 100.011q86.9138 37.1694 182.397 37.1694
q95.4833 0 182.397 -37.1694t149.756 -100.011q62.8417 -62.8417 100.011 -149.755t37.1694 -182.397q0 -95.4833 -37.1694 -182.397t-100.011 -149.756q-62.8417 -62.8417 -149.755 -100.011q-86.9138 -37.1694 -182.398 -37.1694zM723.2 341.333
q-6.02661 -74.2061 -39.4803 -170.591t-74.6957 -158.369q105.658 27.6537 189.054 124.039q83.3964 96.3853 95.575 204.921h-170.453zM300.928 341.333h-170.581q12.1786 -108.536 95.575 -204.921q83.3964 -96.385 189.054 -124.039q-41.1777 62.0034 -74.5938 158.389
q-33.4161 96.3853 -39.4542 170.571zM609.024 755.627q41.1777 -62.0034 74.5938 -158.389q33.4161 -96.3853 39.4542 -170.571h170.581q-12.1786 108.536 -95.575 204.921t-189.054 124.039zM414.976 755.627q-105.658 -27.6537 -189.054 -124.039
q-83.3964 -96.3853 -95.575 -204.921h170.453q6.02667 74.2061 39.4802 170.591q33.4536 96.3852 74.6958 158.369zM386.475 341.333q6.78772 -73.3789 43.5666 -166.514q36.7789 -93.1349 81.9587 -151.353q45.2267 58.2022 82.0431 151.337
q36.8163 93.1349 43.6102 166.53h-251.179zM637.525 426.667q-6.78778 73.379 -43.5667 166.514q-36.7789 93.1349 -81.9586 151.353q-45.2267 -58.2021 -82.0431 -151.337q-36.8164 -93.1349 -43.6103 -166.53z" />
    </font>
</defs>
</svg>
